<?xml version="1.0" standalone="no"?>
<!DOCTYPE svg PUBLIC "-//W3C//DTD SVG 1.1//EN" "http://www.w3.org/Graphics/SVG/1.1/DTD/svg11.dtd" >
<!--
2016-6-17: Created.
-->
<svg xmlns="http://www.w3.org/2000/svg">
<metadata>
Created by FontForge 20120731 at Fri Jun 17 10:46:41 2016
 By Apache
Created by Apache with FontForge 2.0 (http://fontforge.sf.net)
</metadata>
<defs>
<font id="Flaticon" horiz-adv-x="512" >
  <font-face 
    font-family="Flaticon"
    font-weight="500"
    font-stretch="normal"
    units-per-em="512"
    panose-1="2 0 6 3 0 0 0 0 0 0"
    ascent="448"
    descent="-64"
    bbox="0 -64.001 512.157 448"
    underline-thickness="25.6"
    underline-position="-51.2"
    unicode-range="U+0020-F125"
  />
    <missing-glyph />
    <glyph glyph-name="space" unicode=" " horiz-adv-x="200" 
 />
    <glyph glyph-name="uniF122" unicode="&#xf122;" 
d="M121.5 383.8c31.7002 0 57.4004 -25.5996 57.2998 -57.2998c0 -31.5996 -25.5996 -57.2998 -57.2998 -57.2998c-31.5996 0 -57.2998 25.5996 -57.2998 57.2998c0 31.5996 25.5996 57.2998 57.2998 57.2998zM121.5 289.5c20.5 0 37 16.5996 37 37s-16.5996 37 -37 37
s-37 -16.5996 -37 -37s16.5996 -37 37 -37zM244.5 418.2l256.5 -256.4l-214.8 -214.8l-256.5 256.4c-11.4004 11.5 -16.7002 26.0996 -17.7002 40.6992l-1 107.4c0 22.9004 8.2998 44.7998 25 60.5c15.7002 16.7002 37.5996 25 60.5 25l107.3 -1.09961
c15.7002 0 30.2998 -6.2002 40.7002 -17.7002zM285.2 -23.7998l186.6 186.6l-241.899 241.9c-7.30078 7.2998 -16.7002 11.5 -27.1006 11.5l-106.3 1c-17.7002 0 -34.4004 -7.2998 -46.9004 -19.7998c-11.5 -12.5 -18.7998 -29.2002 -18.7998 -45.9004l1 -106.3
c0 -10.4004 4.2002 -19.7998 11.5 -27.1006z" />
    <glyph glyph-name="uniF103" unicode="&#xf103;" 
d="M256.072 448c68.373 0 132.667 -26.623 181.009 -74.9717c99.8086 -99.8242 99.8086 -262.232 0 -362.049c-48.3496 -48.3496 -112.644 -74.9795 -181.017 -74.9795c-68.3809 0 -132.667 26.623 -181.017 74.9795c-48.3496 48.3574 -74.9795 112.636 -74.9795 181.017
s26.6221 132.66 74.9795 181.017c48.3496 48.3496 112.644 74.9873 181.024 74.9873zM363.948 390.365c-32.7227 17.8516 -69.5537 27.3643 -107.869 27.3643c-37.3076 0 -73.2158 -9.0127 -105.28 -25.957l57.877 -57.8838
c15.5137 5.49414 31.9502 8.51367 48.8945 8.51367c17.2158 0 33.918 -3.11816 49.6504 -8.7793zM175.454 113.914c21.9385 -21.9385 51.1045 -34.0244 82.124 -34.0244c31.0117 0 60.1699 12.0859 82.1006 34.0088c45.2695 45.2773 45.2695 118.955 0 164.225
c-21.9307 21.9307 -51.0967 34.0088 -82.1084 34.0088s-60.1777 -12.0781 -82.1162 -34.0088c-45.2686 -45.2695 -45.2686 -118.939 0 -164.209zM62.7129 308.62c-21.0908 -34.833 -32.374 -74.8506 -32.374 -116.616c0 -38.3223 9.51953 -75.1611 27.3711 -107.884
l62.3115 62.3193c-11.9863 33.4111 -11.5625 70.2881 1.47656 103.396zM141.976 -2.83887c34.2432 -20.1221 73.3301 -30.8906 114.097 -30.8906c41.7656 0 81.79 11.2832 116.616 32.374l-61.252 61.2598c-16.9287 -6.69043 -35.1064 -10.2842 -53.8584 -10.2842
c-18.4805 0 -36.3926 3.51855 -53.1094 10.0195zM455.788 86.7842c36.082 68.5996 34.4473 152.01 -4.91113 219.263l-56.9688 -56.9688c12.6602 -32.6689 13.0918 -68.9248 1.47559 -101.89z" />
    <glyph glyph-name="uniF104" unicode="&#xf104;" 
d="M73.3516 -1.00391l-0.179688 -1.24805v0v-36.585h365.656v30.874l-0.359375 4.64355c-2.31641 27.4785 -14.2793 53.001 -33.3701 74.5996c-18.2031 20.6992 -43.0059 37.6533 -71.9238 48.8975c-9.45605 -9.45605 -20.3398 -17.1348 -32.123 -22.8467
c-13.9189 -6.59961 -29.0859 -10.3555 -44.9727 -10.3555c-16.5957 0 -32.3027 3.92383 -46.582 11.0635c-12.1309 6.07129 -23.375 14.459 -33.0098 24.623c-29.0869 -10.5234 -53.8896 -26.9502 -71.9238 -47.4697c-18.5635 -21.0586 -29.9863 -46.7607 -31.2344 -74.5996
v0v-1.59668h0.0224609zM256.09 448c33.5508 0 63.7051 -17.4834 85.3037 -45.502c20.8789 -27.1299 33.9102 -64.4248 33.9102 -105.474c0 -41.0498 -13.0312 -78.3438 -33.9102 -105.475c-21.5986 -28.1982 -51.7529 -45.5127 -85.3037 -45.5127
c-33.5498 0 -63.8848 17.3145 -85.4834 45.5127c-20.8789 27.1309 -33.9102 64.4248 -33.9102 105.475c0 41.0488 13.0312 78.3438 33.9102 105.474c21.5986 28.0186 51.9336 45.502 85.4834 45.502v0zM321.582 387.14c-16.9541 21.9473 -40.1494 35.6973 -65.4922 35.6973
c-25.5225 0 -48.7178 -13.7393 -65.6719 -35.6973c-17.6641 -22.8467 -28.5586 -54.7891 -28.5586 -90.127s10.8838 -67.2803 28.5586 -90.127c16.9541 -22.126 40.1494 -35.6855 65.6719 -35.6855c25.3428 0 48.5381 13.5596 65.4922 35.6855
c17.6641 22.8467 28.5586 54.7891 28.5586 90.127c0 35.3496 -10.8838 67.292 -28.5586 90.127v0zM48.9082 10.2402c3.39551 30.5137 16.416 58.3525 36.9463 81.5586c22.4863 25.7031 54.0693 45.8623 90.6553 57.4648l8.02734 2.49609l5.35156 -6.59961
c8.74805 -10.3555 19.0918 -18.7422 30.6943 -24.623c10.8838 -5.35156 22.8467 -8.3877 35.5186 -8.3877c12.1309 0 23.7344 2.85645 34.2578 7.84766c11.0635 5.35254 21.2393 13.2109 29.9863 23.1953l5.53223 6.25098l8.02734 -2.67578
c36.2256 -12.6709 67.46 -33.1904 89.9473 -58.8926c19.9902 -22.4863 33.5498 -49.0771 38.1934 -77.6348h1.96777v-12.4922v-49.2568v-12.4912h-12.6719h-390.661h-12.6719v12.4912v49.2568v12.4922h0.899414z" />
    <glyph glyph-name="uniF118" unicode="&#xf118;" 
d="M370.132 448c19.0176 0 34.582 -15.5498 34.582 -34.582v-442.836c0 -19.0469 -15.5645 -34.582 -34.582 -34.582h-228.264c-19.0176 0 -34.582 15.5645 -34.582 34.5967v442.821c0 19.0322 15.5645 34.582 34.582 34.582h228.264zM219.487 423.073
c-2.31152 0 -4.18359 -1.87305 -4.18359 -4.19824c0 -2.31152 1.87207 -4.18457 4.18359 -4.18457h73.0254c2.31152 0 4.18359 1.87305 4.18359 4.18457c0 2.3252 -1.87207 4.19824 -4.18359 4.19824h-73.0254zM256 -46.709c9.55273 0 17.291 7.73828 17.291 17.3057
s-7.73828 17.291 -17.291 17.291s-17.291 -7.72363 -17.291 -17.291s7.73828 -17.3057 17.291 -17.3057zM380.65 0v393.157h-249.301v-393.157h249.301z" />
    <glyph glyph-name="uniF10E" unicode="&#xf10e;" 
d="M65.4512 139.054c-36.1611 0.418945 -65.4512 29.9658 -65.4512 66.2246c0 36.2627 29.29 65.8066 65.4482 66.2256c28.3271 78.1367 105.266 131.907 190.549 131.907c9.06543 0 18.001 -0.739258 26.8311 -1.91895
c0.911133 -0.0419922 1.8623 -0.0341797 2.75879 -0.0810547c1.44238 -0.0810547 2.70996 -0.413086 3.89453 -0.860352c71.3867 -11.9473 132.5 -61.3066 157.057 -129.049c36.1699 -0.416016 65.46 -29.96 65.46 -66.2217c0 -36.2588 -29.2988 -65.8076 -65.46 -66.2266
c-21.7666 -60.0244 -72.2578 -105.557 -133.145 -123.484c-10.7832 -20.7412 -32.4434 -34.9756 -57.3955 -34.9756c-24.9541 0 -46.6162 14.2344 -57.4023 34.9756c-60.8867 17.9277 -111.375 63.4512 -133.145 123.484zM216.08 101.117
c0 -1.20996 0.637695 -2.53125 1.52734 -3.87891c10.751 7.95996 24.0049 12.7344 38.3838 12.7344c14.3799 0 27.6211 -4.77441 38.3779 -12.7344c0.904297 1.34766 1.53223 2.67773 1.53223 3.87891c0 7.0332 -15.918 17.6465 -39.9102 17.6465
c-23.9883 0 -39.9111 -10.6133 -39.9111 -17.6465zM268.789 7.64941c12.9365 4.41992 22.9043 15.1855 26.0146 28.6611c0.677734 2.90332 1.10547 5.87109 1.10547 8.96777c0 7.2334 -2.08887 13.9355 -5.46875 19.7891c-5.42676 9.40332 -14.459 16.4033 -25.2969 18.9678
c-2.94238 0.694336 -5.98438 1.1543 -9.14551 1.1543c-3.16016 0 -6.20117 -0.459961 -9.14746 -1.1543c-10.8428 -2.57129 -19.8789 -9.56445 -25.3037 -18.9678c-3.38672 -5.85352 -5.4668 -12.5557 -5.4668 -19.7891c0 -3.09668 0.438477 -6.08008 1.10547 -8.96777
c3.11621 -13.4736 13.0801 -24.2402 26.0234 -28.6611c4.03613 -1.37012 8.29199 -2.28906 12.791 -2.28906s8.75684 0.918945 12.7891 2.28906zM66.2217 246.734c-22.8594 0 -41.4473 -18.5977 -41.4502 -41.4561c0 -22.8545 18.5879 -41.4502 41.4473 -41.4502
c1.79883 0 3.74219 0.160156 6.1377 0.507812l10.5596 1.57129l3.11328 -10.209c15.791 -51.7734 55.6855 -92.3389 105.354 -111.565c-0.0078125 0.387695 -0.0566406 0.758789 -0.0566406 1.13672c0 12.2832 3.50488 23.7354 9.47266 33.5244
c-5.98926 6.45215 -9.47266 14.0586 -9.47266 22.3154c0 23.7969 28.4062 42.4268 64.6855 42.4268c36.2744 0 64.6846 -18.6279 64.6846 -42.4268c0 -8.25781 -3.4834 -15.8633 -9.47559 -22.3154c5.97656 -9.78906 9.47559 -21.2412 9.47559 -33.5244
c0 -0.37793 -0.046875 -0.749023 -0.0566406 -1.13672c49.6631 19.2266 89.5664 59.792 105.356 111.565l3.1123 10.209l10.5635 -1.57129c2.37207 -0.347656 4.30664 -0.507812 6.11426 -0.507812c22.8535 0 41.4512 18.5957 41.4512 41.4502
c0 22.8584 -18.5977 41.4561 -41.4512 41.4561c-1.80762 0 -3.74316 -0.164062 -6.13867 -0.510742l-10.5469 -1.55371l-3.10449 10.1973c-19.8076 64.9277 -77.4688 112.302 -144.863 121.892c-16.6689 0.599609 -33.9883 -0.62207 -49.7461 -6.13867
c-14.5312 -5.08301 -38.0186 -23.6562 -19.7852 -40.0264c14.4434 -12.9639 41.7012 -17.2979 60.1777 -11.9883c9.91113 2.84766 22.9756 11.749 8.79785 19.5439c-10.3389 5.67188 -20.1445 5.35059 -30.915 1.08398c-14.8711 -5.89844 -21.2539 18.0684 -6.58887 23.8916
c18.1172 7.18945 40.2783 5.35156 55.5371 -7.59277c10.9023 -9.24512 18.9033 -26.335 9.88672 -39.8428c-19.9824 -29.9834 -67.3779 -28.1865 -96.6729 -14.4033c-23.5078 11.0557 -37.6045 39.4141 -27.2256 62.4141
c-46.5156 -20.1895 -83.5195 -59.4346 -98.5918 -108.833l-3.10449 -10.1973l-10.5439 1.55371c-2.39551 0.345703 -4.34766 0.510742 -6.1377 0.510742zM203.692 180.852c-21.2979 0 -21.2979 33.0342 0 33.0342c21.2988 0 21.2988 -33.0342 0 -33.0342zM308.298 182.916
c-21.2979 0 -21.2979 33.0322 0 33.0322s21.2979 -33.0322 0 -33.0322z" />
    <glyph glyph-name="uniF125" unicode="&#xf125;" 
d="M238.64 46.8643c0 12.0319 6.01595 18.0479 18.0479 18.0479c12.0326 0 18.0488 -6.01595 18.0488 -18.0479s-6.01627 -18.0479 -18.0488 -18.0479c-12.0319 1.33514e-05 -18.0479 6.01596 -18.0479 18.0479zM240.64 247.904c0 4.4335 1.56598 8.21628 4.69794 11.3483
c3.13196 3.13303 6.91527 4.69952 11.3499 4.69952c4.43417 0 8.21753 -1.56726 11.35 -4.70175c3.13254 -3.13449 4.69879 -6.91652 4.69879 -11.3461v-138.464c0 -4.43247 -1.56589 -8.21393 -4.69763 -11.3444c-3.13177 -3.13044 -6.9155 -4.69566 -11.3512 -4.69566
c-4.43436 0 -8.21759 1.56599 -11.3497 4.69796c-3.1321 3.13197 -4.69815 6.91267 -4.69815 11.3421v138.464zM510.128 -25.8721c2.83508 -5.34398 2.69904 -10.6106 -0.408203 -15.7998c-3.12369 -5.19987 -7.71286 -7.7998 -13.7676 -7.7998h-478.528
c-6.06228 0 -10.6489 2.59993 -13.7598 7.7998c-3.11957 5.18179 -3.25564 10.4484 -0.408203 15.7998l239.272 449.216c2.78369 5.23193 7.50261 7.8479 14.1567 7.8479c6.65411 0 11.375 -2.61597 14.1626 -7.8479zM44.1523 -17.376h425.08l-212.545 399.048z" />
    <glyph glyph-name="uniF10A" unicode="&#xf10a;" 
d="M352 74.667v-42.667h-42.667v42.667h42.667zM277.333 224v-42.667h-42.666v42.667h42.666zM352 149.333v-42.666h-42.667v42.666h42.667zM352 224v-42.667h-42.667v42.667h42.667zM426.667 224v-42.667h-42.667v42.667h42.667zM426.667 149.333v-42.666h-42.667v42.666
h42.667zM277.333 149.333v-42.666h-42.666v42.666h42.666zM202.667 224v-42.667h-42.667v42.667h42.667zM128 149.333v-42.666h-42.667v42.666h42.667zM202.667 74.667v-42.667h-42.667v42.667h42.667zM128 74.667v-42.667h-42.667v42.667h42.667zM202.667 149.333v-42.666
h-42.667v42.666h42.667zM277.333 74.667v-42.667h-42.666v42.667h42.666zM416 405.333h96v-469.333h-512v469.333h96v42.667h21.333v-42.667h277.334v42.667h21.333v-42.667zM490.667 -42.667v320h-469.334v-320h469.334zM490.667 298.667v85.333h-74.667v-21.333h-21.333
v21.333h-277.334v-21.333h-21.333v21.333h-74.667v-85.333h469.334z" />
    <glyph glyph-name="uniF113" unicode="&#xf113;" 
d="M162.533 286.802c-5.0293 0 -9.10352 4.0752 -9.10352 9.10449v67.9756c0 5.02832 4.07422 9.10352 9.10352 9.10352h67.9756c5.02832 0 9.10352 -4.0752 9.10352 -9.10352v-67.9756c0 -5.0293 -4.0752 -9.10449 -9.10352 -9.10449h-67.9756zM171.637 354.777v-49.7676
h49.7676v49.7676h-49.7676zM281.489 286.802c-5.02832 0 -9.10449 4.0752 -9.10449 9.10449v67.9756c0 5.02832 4.0752 9.10352 9.10449 9.10352h67.9756c5.02832 0 9.10352 -4.0752 9.10352 -9.10352v-67.9756c0 -5.0293 -4.0752 -9.10449 -9.10352 -9.10449h-67.9756z
M290.593 354.777v-49.7676h49.7676v49.7676h-49.7676zM230.509 165.417h-67.9756c-5.0293 0 -9.10352 4.0752 -9.10352 9.10449v67.9756c0 5.02832 4.07422 9.10352 9.10352 9.10352h67.9756c5.02832 0 9.10352 -4.0752 9.10352 -9.10352v-67.9756
c0 -5.0293 -4.0752 -9.10449 -9.10352 -9.10449zM171.637 233.393v-49.7676h49.7676v49.7676h-49.7676zM281.489 165.417c-5.02832 0 -9.10449 4.07617 -9.10449 9.10449v67.9756c0 5.02832 4.0752 9.10352 9.10449 9.10352h67.9756
c5.02832 0 9.10352 -4.0752 9.10352 -9.10352v-67.9756c0 -5.0293 -4.0752 -9.10449 -9.10352 -9.10449h-67.9756zM290.593 233.393v-49.7676h49.7676v49.7676h-49.7676zM502.896 329.287c5.02734 0 9.10352 -4.0752 9.10352 -9.10449v-63.1621v-67.9756v-53.4092v-67.9756
v-109.91c0 -5.0293 -4.0752 -9.10449 -9.10352 -9.10449h-108.525h-276.743h-108.524c-5.02832 0 -9.10352 4.0752 -9.10352 9.10449v109.91v67.9756v53.4092v67.9756v63.1621c0 5.0293 4.0752 9.10449 9.10352 9.10449h99.4209v96.9629
c0 5.0293 4.07422 9.10449 9.10352 9.10449h276.743c5.02832 0 9.10352 -4.0752 9.10352 -9.10449v-96.9629h99.4219zM18.208 247.917v-49.7686h49.7676v49.7686h-49.7676zM18.208 126.531v-49.7676h49.7676v49.7676h-49.7676zM108.524 -33.1465v344.226h-90.3164v-44.9551
h58.8711c5.0293 0 9.10449 -4.07422 9.10449 -9.10352v-67.9756c0 -5.0293 -4.0752 -9.10352 -9.10449 -9.10352h-58.8711v-35.2021h58.8711c5.0293 0 9.10449 -4.0752 9.10449 -9.10352v-67.9756c0 -5.0293 -4.0752 -9.10352 -9.10449 -9.10352h-58.8711v-91.7031h90.3164z
M293.993 -33.1465v132.394h-75.9873v-132.394h75.9873zM385.267 320.183l0.00195312 96.9639h-258.535v-96.9639v-353.328h73.0664v141.496c0 5.0293 4.07422 9.10352 9.10352 9.10352h94.1943c5.0293 0 9.10449 -4.07422 9.10449 -9.10352v-141.497h73.0645v353.329z
M493.792 76.7637v49.7676h-49.7676v-49.7676h49.7676zM493.792 198.148v49.7686h-49.7676v-49.7686h49.7676zM493.792 266.124v44.9551h-90.3174v-344.226h90.3174v91.7031h-58.8711c-5.03125 0 -9.10449 4.07422 -9.10449 9.10352v67.9756
c0 5.02832 4.07324 9.10352 9.10449 9.10352h58.8711v35.2021h-58.8711c-5.03125 0 -9.10449 4.07422 -9.10449 9.10352v67.9756c0 5.0293 4.07324 9.10352 9.10449 9.10352h58.8711z" />
    <glyph glyph-name="uniF101" unicode="&#xf101;" 
d="M512 396.8l-204.8 -204.8l204.8 -204.8l-51.2002 -51.2002l-204.8 204.8l-204.8 -204.8l-51.2002 51.2002l204.8 204.8l-204.8 204.8l51.2002 51.2002l204.8 -204.8l204.8 204.8z" />
    <glyph glyph-name="uniF11B" unicode="&#xf11b;" 
d="M483.667 309.172c18.5352 -35.9434 28.3311 -76.46 28.3311 -117.171c0 -141.158 -114.841 -255.999 -255.999 -255.999s-255.999 114.841 -255.999 255.999s114.841 255.999 255.999 255.999c5.75293 0 10.4189 -4.66602 10.4189 -10.4189
s-4.66602 -10.4189 -10.4189 -10.4189c-129.667 0 -235.161 -105.492 -235.161 -235.161s105.494 -235.163 235.161 -235.163c129.668 0 235.161 105.494 235.161 235.161c0 37.9395 -8.75195 74.1475 -26.0127 107.622c-16.4746 31.9473 -40.498 60.1582 -69.4746 81.5869
c-4.62598 3.42285 -5.60547 9.94727 -2.18359 14.5732c3.42285 4.62598 9.94531 5.60352 14.5732 2.18262c31.5312 -23.3174 57.6768 -54.0215 75.6045 -88.792zM190.494 310.869c3.25781 1.85254 7.25488 1.81055 10.4785 -0.104492l184.46 -109.809
c3.09961 -1.8457 5.02344 -5.16309 5.08789 -8.76953c0.0634766 -3.60645 -1.74219 -6.98926 -4.77441 -8.94336l-127.573 -82.1943c-4.83789 -3.11816 -11.2832 -1.72266 -14.4023 3.11523c-3.11719 4.83691 -1.7207 11.2842 3.11523 14.4014l113.437 73.085
l-154.26 91.832v-210.325c0 -5.75488 -4.66602 -10.4189 -10.4199 -10.4189c-5.75293 0 -10.4189 4.66406 -10.4189 10.4189v228.654c0 3.74512 2.0127 7.2041 5.27051 9.05762z" />
    <glyph glyph-name="uniF124" unicode="&#xf124;" 
d="M41.6748 68.5645c-8.73242 0 -16.2734 7.54102 -16.2734 16.2725v214.326c0 9.12793 7.14453 16.2725 16.2734 16.2725h107.162c9.12891 0 16.2734 -7.14453 16.2734 -16.2725v-5.55664l188.924 126.214c5.15918 3.1748 11.5098 3.57227 16.6699 0.793945
c5.55664 -2.77832 8.73145 -8.33496 8.73145 -14.2891v-428.254c0 -5.95312 -3.57227 -11.5098 -8.73145 -14.2881c-2.38184 -1.19141 -4.7627 -1.98438 -7.54102 -1.98438c-3.17578 0 -6.35059 0.792969 -9.12891 2.77832l-188.924 125.816v-5.55664
c0 -9.12793 -7.14453 -16.2725 -16.2734 -16.2725h-107.162zM165.11 254.71v-125.42l181.779 -121.451v367.926zM57.9473 282.89v-181.779h74.6172v19.4482v142.883v19.4482h-74.6172zM470.325 315.436c8.73242 0 16.2734 -7.54102 16.2734 -16.2725v-214.326
c0 -9.12793 -7.14453 -16.2725 -16.2734 -16.2725c-9.12793 0 -16.2725 7.14453 -16.2725 16.2725v214.326c0 9.12793 7.14453 16.2725 16.2725 16.2725z" />
    <glyph glyph-name="uniF114" unicode="&#xf114;" 
d="M155.784 192.014l231.12 -231.228c5.68652 -5.6875 5.68652 -14.8076 0 -20.4941c-2.79004 -2.89746 -6.54492 -4.29199 -10.1934 -4.29199s-7.40332 1.50195 -10.1934 4.29199l-241.528 241.421c-5.68652 5.68652 -5.68652 14.8066 0 20.4941l241.528 241.528
c5.68652 5.68652 14.8076 5.68652 20.4941 0c5.68652 -5.6875 5.68652 -14.8076 0 -20.4941z" />
    <glyph glyph-name="uniF117" unicode="&#xf117;" 
d="M475.391 384.256l36.6094 -36.585l-347.965 -347.927l-164.035 164.029l36.5752 36.6416l127.46 -127.474z" />
    <glyph glyph-name="uniF11F" unicode="&#xf11f;" 
d="M0 247.322h512v-110.645h-512v110.645z" />
    <glyph glyph-name="uniF11C" unicode="&#xf11c;" 
d="M163.869 212.02c30.7412 -8.8457 56.1719 -28.8301 71.6123 -56.2471c15.6074 -27.7285 19.4795 -59.8613 10.9131 -90.501c-14.3398 -51.252 -61.4775 -87.0527 -114.637 -87.0527c-0.176758 0 -0.348633 0.00488281 -0.526367 0.0107422
c-43.083 1.68066 -76.5635 18.5068 -99.5127 50.0166c-41.0098 56.3115 -36.1279 145.775 -19.4795 205.282c28.3633 101.431 95.5762 172.27 163.445 172.27c4.21582 0 8.46973 -0.290039 12.6426 -0.859375c3.83984 -0.526367 7.2666 -2.69141 9.39844 -5.93457
c2.13281 -3.24414 2.75 -7.24512 1.70801 -10.9834l-12.3574 -44.2002c-1.42871 -5.09668 -5.71973 -8.88281 -10.9561 -9.66211c-56.543 -8.40527 -84.9268 -83.041 -96.7422 -126.296c12.2559 5.30078 28.0615 9.62988 47.0039 9.62988
c12.2666 0 24.877 -1.84277 37.4873 -5.47266zM496.629 155.767c15.6016 -27.7227 19.4795 -59.8613 10.9238 -90.5c-14.3389 -51.2529 -61.4824 -87.0537 -114.636 -87.0537c-0.182617 0 -0.354492 0.00585938 -0.532227 0.0107422
c-43.0781 1.67578 -76.5635 18.5078 -99.5068 50.0117c-41.0156 56.3223 -36.1338 145.786 -19.4902 205.293c28.3672 101.431 95.5811 172.27 163.45 172.27c4.22168 0 8.47461 -0.290039 12.6426 -0.859375c3.8457 -0.526367 7.27148 -2.69141 9.39844 -5.93457
c2.13184 -3.24414 2.75 -7.24512 1.70801 -10.9834l-12.3584 -44.2002c-1.43359 -5.09668 -5.71973 -8.88281 -10.9561 -9.66211c-56.5469 -8.40527 -84.9307 -83.041 -96.7461 -126.296c12.2559 5.30078 28.0664 9.62988 47.0088 9.62988
c12.2617 0 24.8711 -1.84277 37.4814 -5.47266c30.7422 -8.8457 56.1719 -28.8301 71.6123 -56.2529z" />
    <glyph glyph-name="uniF110" unicode="&#xf110;" 
d="M512 256v-128h-192v-192h-128v192h-192v128h192v192h128v-192h192z" />
    <glyph glyph-name="uniF107" unicode="&#xf107;" 
d="M488.811 424.962c44.0771 -45.3301 15.1445 -102.984 -4.38672 -116.458l-41.2568 -36.9746l32.6924 -292.66c0 -3.23828 -1.04492 -6.47559 -3.23828 -8.66895l-30.498 -30.499c-5.84961 -5.53516 -13.2646 -4.9082 -17.4424 2.19336l-109.983 212.132
l-79.3789 -67.3682l16.293 -115.31c0 -3.2373 -1.04395 -6.47559 -3.2373 -8.66895l-19.6367 -19.5312c-4.38672 -4.38672 -13.5781 -6.99805 -17.4424 2.19336l-45.748 92.4355c-17.4424 -2.19336 -34.7803 3.2373 -46.792 16.2939
c-13.0557 13.0557 -18.4873 30.498 -16.2939 46.792l-92.5391 45.6436c-6.16309 3.44629 -7.72949 11.5938 -2.19434 17.4424l19.6367 19.5312c2.19336 2.19336 5.43066 3.23828 8.66895 3.23828l115.414 -16.2939l67.4727 79.3799l-213.281 110.923
c-7.10156 3.55078 -6.99707 13.0557 -2.19336 17.4424l30.499 30.498c1.46191 1.98535 6.05762 2.71582 8.66895 2.19336l292.765 -32.6914l35.9297 42.4053c15.041 19.6357 68.6221 48.1504 117.503 4.38672zM470.219 327.096
c10.3408 5.43066 39.7949 50.8652 3.23828 84.8105c-36.0342 33.5273 -76.1416 9.71387 -84.915 -2.19336l-41.3613 -45.6436c-2.19336 -2.19336 -5.43164 -4.38672 -9.81836 -3.2373l-292.556 32.5869l-15.249 -20.6807l210.043 -109.878
c7.31055 -4.7002 5.43066 -14.1006 3.2373 -16.2939l-79.4834 -94.6289c-2.19336 -3.2373 -6.58105 -4.38672 -9.81836 -3.2373l-115.31 16.293l-5.43164 -5.43066l85.96 -42.4053c4.38672 -2.19336 7.625 -7.625 5.43164 -13.0566
c-4.38672 -12.0107 -1.04492 -25.0664 8.66895 -34.7803c8.66895 -8.66895 22.874 -12.0117 34.7812 -8.66895c5.43066 1.04395 10.8623 -1.04492 13.0557 -5.43164l42.4053 -85.96l5.43164 5.43164l-16.2939 115.31c0 3.2373 1.04395 7.62402 3.2373 9.81738
l94.7334 79.3799c5.64062 4.17773 13.3691 4.38672 17.5479 -2.29785l109.878 -209.938l16.2939 16.2939l-32.6924 292.66c0 3.23828 1.04492 6.47559 3.23828 9.81836z" />
    <glyph glyph-name="uniF119" unicode="&#xf119;" 
d="M511.649 26.5928c1.62695 -12.3037 -2.47363 -24.3936 -11.248 -33.1689l-37.4883 -37.4893c-13.2861 -13.2852 -32.168 -19.9346 -55.4873 -19.9346c-22.6074 -0.000976562 -49.3838 6.24707 -79.2832 18.75c-58.4082 24.4258 -122.704 70.0068 -181.046 128.347
c-58.3389 58.3418 -103.92 122.638 -128.346 181.045c-25.4014 60.7432 -24.9814 108.604 1.18359 134.771l37.4883 37.4893c8.77539 8.77539 20.8652 12.8789 33.1699 11.248c12.3027 -1.62793 22.9102 -8.72949 29.1025 -19.4844l72.7256 -126.312
c8.90918 -15.4736 6.31348 -35.0967 -6.31348 -47.7217l-24.8779 -24.8799c-6.62305 -6.62207 -7.20801 -17.0947 -1.36133 -24.3604c15.7832 -19.6143 33.1523 -38.9248 51.625 -57.3975c18.4717 -18.4736 37.7842 -35.8428 57.3975 -51.625
c7.26465 -5.84668 17.7383 -5.26074 24.3594 1.36133l24.8789 24.8799c12.6279 12.626 32.2539 15.2188 47.7236 6.31152l126.312 -72.7256c10.7539 -6.19141 17.8564 -16.7998 19.4844 -29.1025zM357.577 114.047c-8.98535 5.17285 -20.3857 3.66504 -27.7188 -3.66699
l-6.81738 -6.81738l167.868 -95.8057c3.53125 4.75879 5.08984 10.6641 4.2959 16.6602c-0.944336 7.14648 -5.06934 13.3076 -11.3154 16.9033zM88.416 431.205c-1.02734 0.135742 -2.05469 0.203125 -3.07324 0.203125c-4.90918 0 -9.61914 -1.58301 -13.5566 -4.49902
l96.3311 -167.312l6.2627 6.26172c7.33203 7.33203 8.84082 18.7305 3.66504 27.7178l-72.7256 126.312c-3.5957 6.24707 -9.75586 10.3721 -16.9033 11.3174zM451.183 -32.3359l27.7998 27.8008l-168.101 95.9395l-5.90234 -5.90332
c-12.627 -12.625 -32.6104 -13.7227 -46.4883 -2.55664c-20.0762 16.1553 -39.835 33.9268 -58.7285 52.8193c-18.8916 18.8916 -36.6631 38.6504 -52.8184 58.7275c-11.166 13.8799 -10.0674 33.8643 2.55566 46.4883l6.46973 6.46973l-96.4756 167.565l-27.8301 -27.8311
c-20.7871 -20.7881 -19.917 -63.3018 2.39062 -116.643c23.6113 -56.4619 67.9229 -118.865 124.772 -175.715c56.8496 -56.8486 119.252 -101.16 175.715 -124.771c53.3398 -22.3066 95.8535 -23.1777 116.641 -2.39062z" />
    <glyph glyph-name="uniF11D" unicode="&#xf11d;" 
d="M387.058 202.207c5.58008 -5.58008 5.58008 -14.8076 -0.107422 -20.3867l-241.528 -241.528c-2.78906 -2.89746 -6.54492 -4.29199 -10.1934 -4.29199c-3.64746 0 -7.40332 1.50195 -10.1934 4.29199c-5.68652 5.68652 -5.68652 14.8066 0 20.4941l231.228 231.228
l-231.228 231.228c-5.68652 5.68652 -5.68652 14.8066 0 20.4941c5.6875 5.68652 14.8076 5.68652 20.4941 0z" />
    <glyph glyph-name="uniF108" unicode="&#xf108;" 
d="M344.774 366.591l161.812 -161.827c7.21875 -6.95898 7.21875 -18.5684 0 -25.543l-161.812 -161.812c-6.95801 -7.21875 -18.584 -7.21875 -25.8027 0c-6.97559 6.95898 -6.97559 18.584 0 25.8037l130.837 130.593h-431.745
c-10.0645 0 -18.0635 8.25977 -18.0635 18.3242s7.99902 18.0645 18.0635 18.0801h431.745l-130.837 130.838c-6.97559 6.95801 -6.97559 18.5674 0 25.543c7.21875 7.21875 18.8281 7.21875 25.8027 0z" />
    <glyph glyph-name="uniF11E" unicode="&#xf11e;" 
d="M512 -53.5225l-10.4248 -10.2061l-172.518 168.863c-0.146484 -0.117188 -0.262695 -0.249023 -0.40918 -0.366211c-35.9951 -30.2344 -82.0186 -46.9004 -129.592 -46.9004c-53.2031 0 -103.204 20.2783 -140.821 57.0918c-77.6465 75.9951 -77.6465 199.667 0 275.677
c37.6172 36.8135 87.6191 57.0918 140.821 57.0918c53.2031 0 103.203 -20.2783 140.82 -57.0918c37.6182 -36.8145 58.335 -85.7764 58.335 -137.839c0.0146484 -52.0625 -20.7168 -101.024 -58.335 -137.838v0zM199.057 72.2979c44.0508 0 86.668 15.4248 119.987 43.4072
c3.55273 2.99707 7.03223 6.14062 10.3945 9.44434c34.8398 34.0938 54.0371 79.416 54.0215 127.634c0 48.2168 -19.1807 93.5391 -54.0215 127.633c-34.8242 34.0938 -81.127 52.8662 -130.382 52.8662s-95.5566 -18.7725 -130.396 -52.8662
c-71.8867 -70.3652 -71.8867 -184.886 0 -255.253c34.8389 -34.0938 81.1416 -52.8652 130.396 -52.8652z" />
    <glyph glyph-name="uniF111" unicode="&#xf111;" 
d="M511.991 317.299h0.00878906v-250.598c0 -11.2041 -4.49414 -21.3389 -11.6895 -28.9404c-0.141602 -0.150391 -0.185547 -0.344727 -0.335938 -0.486328c-0.0527344 -0.0439453 -0.114258 -0.0605469 -0.166992 -0.106445
c-7.82227 -7.98047 -18.7344 -12.9863 -30.8389 -12.9863h-425.937c-12.1045 0 -23.0078 4.99707 -30.8389 12.9795c-0.0537109 0.0537109 -0.115234 0.0615234 -0.167969 0.114258c-0.15918 0.150391 -0.203125 0.345703 -0.344727 0.503906
c-7.18652 7.60156 -11.6807 17.7275 -11.6807 28.9229v250.597c0 10.9297 4.31738 20.8086 11.1953 28.3486c0.114258 0.150391 0.140625 0.334961 0.264648 0.476562c0.114258 0.141602 0.282227 0.194336 0.397461 0.317383
c7.84863 8.19434 18.8848 13.376 31.1738 13.376h425.937c12.2891 0 23.3252 -5.18164 31.1572 -13.376c0.123047 -0.123047 0.282227 -0.175781 0.397461 -0.308594c0.123047 -0.150391 0.149414 -0.327148 0.263672 -0.476562
c6.8877 -7.53906 11.2051 -17.4277 11.2051 -28.3574zM344.412 205.243l147.97 -147.916c1.19238 2.9043 1.88086 6.05566 1.88086 9.37598v250.596c0 3.67285 -0.856445 7.14258 -2.30371 10.2852zM468.968 342.293h-425.937
c-3.71582 0 -7.2207 -0.847656 -10.4082 -2.27832l223.377 -185.201l223.377 185.201c-3.1875 1.43066 -6.69238 2.27832 -10.4092 2.27832zM19.6182 57.334l147.97 147.909l-147.547 122.34c-1.44727 -3.1416 -2.30371 -6.6123 -2.30371 -10.2842v-250.588
c0 -3.32031 0.688477 -6.48145 1.88086 -9.37695zM43.0312 41.7158h425.936c4.09766 0 7.91113 1.05957 11.3369 2.77148l-149.524 149.463l-69.085 -57.2812c-1.64258 -1.36914 -3.67285 -2.05762 -5.69434 -2.05762c-2.02246 0 -4.05273 0.688477 -5.69531 2.05762
l-69.085 57.2812l-149.524 -149.463c3.42578 -1.71094 7.24023 -2.77148 11.3359 -2.77148z" />
    <glyph glyph-name="uniF115" unicode="&#xf115;" 
d="M122.886 84.4893c12.5879 0 23.4111 -4.48828 32.4805 -13.4395c9.06641 -8.97559 13.5977 -19.8447 13.5977 -32.6484s-4.53223 -23.6924 -13.5977 -32.6484c-9.06836 -8.95996 -19.8926 -13.4395 -32.4805 -13.4395c-12.7998 0 -23.6797 4.47949 -32.6436 13.4395
c-8.96094 8.96777 -13.4395 19.8447 -13.4395 32.6484s4.48242 23.6807 13.4395 32.6484c8.96094 8.95898 19.8408 13.4395 32.6436 13.4395zM112.646 181.764c0 -14.0781 -5.01074 -26.1318 -15.0381 -36.1553c-10.0273 -10.0303 -22.082 -15.043 -36.1621 -15.043
s-26.1338 5.0127 -36.1611 15.043c-10.0264 10.0303 -15.0381 22.0771 -15.0381 36.1553c0 14.083 5.0127 26.1367 15.0381 36.1641c10.0273 10.0254 22.0811 15.0391 36.1611 15.0391s26.1348 -5.01172 36.1621 -15.0391
c10.0273 -10.0352 15.0381 -22.085 15.0381 -36.1641zM409.601 299.517c-7.04199 0 -13.0723 2.50586 -18.085 7.52148c-5.01074 5.01562 -7.51758 11.041 -7.51758 18.083s2.50684 13.0654 7.51758 18.0781c5.0127 5.01172 11.043 7.52246 18.085 7.52246
c7.03418 0 13.0674 -2.50684 18.0771 -7.52246c5.01367 -5.01172 7.52539 -11.0361 7.52539 -18.0781c0 -7.03809 -2.51172 -13.0674 -7.52539 -18.083c-5.00684 -5.01074 -11.043 -7.52148 -18.0771 -7.52148zM122.889 381.438
c15.5723 0 28.8525 -5.49414 39.8379 -16.4785c10.9854 -10.9854 16.4795 -24.2656 16.4795 -39.8379c0 -15.5742 -5.49414 -28.8525 -16.4795 -39.8418c-10.9854 -10.9854 -24.2656 -16.4814 -39.8379 -16.4814s-28.8516 5.49316 -39.8418 16.4814
c-10.9883 10.9893 -16.4795 24.2637 -16.4795 39.8418c0 15.5723 5.49121 28.8525 16.4795 39.8379c10.9873 10.9844 24.2666 16.4785 39.8418 16.4785zM492.797 203.525c5.98145 -5.97656 8.95703 -13.2334 8.95703 -21.7666
c0 -8.5293 -2.98047 -15.7881 -8.95703 -21.7549c-5.9668 -5.97559 -13.2236 -8.95996 -21.7539 -8.95996c-8.53809 0 -15.7881 2.98438 -21.7627 8.95996c-5.96875 5.96094 -8.95215 13.2256 -8.95215 21.7549c0 8.53809 2.9834 15.793 8.95215 21.7666
c5.97168 5.97461 13.2236 8.95801 21.7627 8.95801c8.53027 0 15.7832 -2.9834 21.7539 -8.95801zM409.601 74.2441c9.81152 0 18.2383 -3.5166 25.2793 -10.5596c7.04199 -7.04297 10.5605 -15.4648 10.5605 -25.2842c0 -9.81543 -3.51855 -18.2432 -10.5605 -25.2852
c-7.04199 -7.03418 -15.4678 -10.5547 -25.2793 -10.5547c-9.81836 0 -18.2461 3.51367 -25.2881 10.5547c-7.0332 7.04297 -10.5557 15.4736 -10.5557 25.2852c0 9.81934 3.52246 18.25 10.5557 25.2842c7.04297 7.04199 15.4688 10.5596 25.2881 10.5596zM266.242 17.9307
c11.3076 0 20.958 -4.00781 28.959 -12.0098c8.00195 -8.00098 12.002 -17.6504 12.002 -28.958s-4 -20.958 -12.002 -28.958c-8.00098 -8.00098 -17.6514 -12.0059 -28.959 -12.0059c-11.3105 0 -20.9609 4.00488 -28.9658 12.0059
c-8.00098 8 -11.998 17.6504 -11.998 28.958s4.00098 20.957 11.998 28.958c8.00488 8.00195 17.6592 12.0098 28.9658 12.0098zM266.242 448c17.0723 0 31.5752 -5.97363 43.5186 -17.917c11.9434 -11.9521 17.916 -26.459 17.916 -43.5234
c0 -17.0664 -5.97266 -31.5742 -17.916 -43.5176c-11.9434 -11.9482 -26.4463 -17.9189 -43.5186 -17.9189c-17.0674 0 -31.5771 5.97461 -43.5244 17.9189c-11.9473 11.9482 -17.918 26.4521 -17.918 43.5186c0 17.0645 5.97363 31.5742 17.918 43.5225
c11.9473 11.9463 26.4609 17.917 43.5244 17.917z" />
    <glyph glyph-name="uniF100" unicode="&#xf100;" 
d="M234.667 64v149.333h42.667v-149.333h-42.667zM234.667 256v64h42.667v-64h-42.667zM256 448c140.8 0 256 -115.2 256 -256s-115.2 -256 -256 -256s-256 115.2 -256 256s115.2 256 256 256zM256 -21.333c117.333 0 213.333 95.999 213.333 213.333
s-95.999 213.333 -213.333 213.333s-213.333 -95.999 -213.333 -213.333c0 -117.333 95.999 -213.333 213.333 -213.333z" />
    <glyph glyph-name="uniF10B" unicode="&#xf10b;" 
d="M137.46 56.9727c-21.0234 0 -38.1279 17.1035 -38.1279 38.1279c0 21.0234 17.1045 38.127 38.1279 38.127s38.1279 -17.1035 38.1279 -38.127c0 -21.0244 -17.1045 -38.1279 -38.1279 -38.1279zM137.46 116.888c-12.0146 0 -21.7871 -9.77441 -21.7871 -21.7871
c0 -12.0137 9.77344 -21.7881 21.7871 -21.7881s21.7871 9.77441 21.7871 21.7881c0 12.0127 -9.77344 21.7871 -21.7871 21.7871zM374.54 133.228c21.0234 0 38.1279 -17.1035 38.1279 -38.127c0 -21.0244 -17.1045 -38.1279 -38.1279 -38.1279
s-38.1279 17.1035 -38.1279 38.1279c0 21.0234 17.1045 38.127 38.1279 38.127zM374.54 73.3125c12.0146 0 21.7871 9.77441 21.7871 21.7881c0 12.0127 -9.77344 21.7871 -21.7871 21.7871s-21.7871 -9.77441 -21.7871 -21.7871
c0 -12.0137 9.77344 -21.7881 21.7871 -21.7881zM149.787 321.581c-6.74121 0 -20.71 -6.03516 -25.332 -10.9463l-52.4961 -55.7793h128.241l0.00195312 74.8955c0 4.51172 3.65625 8.16992 8.16992 8.16992h110.267c8.48242 0 20.8066 -7.82031 24.418 -15.4961
l33.6113 -72.2949c1.17578 -2.53027 0.978516 -5.48633 -0.521484 -7.83887c-1.50098 -2.35254 -4.09668 -3.77637 -6.8877 -3.77637h-316.21c-3.25977 0 -6.20703 1.93652 -7.5 4.92969c-1.29199 2.99219 -0.68457 6.46582 1.5498 8.83984l65.457 69.5498
c7.78516 8.26953 25.877 16.0869 37.2314 16.0869h25.9043c4.5127 0 8.16992 -3.6582 8.16992 -8.16992c0 -4.5127 -3.65723 -8.16992 -8.16992 -8.16992h-25.9043zM216.542 321.581l-0.000976562 -66.7256h139.91l-28.1963 60.6455
c-1.09668 2.06934 -7.23926 5.96777 -9.63965 6.08008h-102.073zM512 167.28v-39.5c0 -22.5264 -16.4355 -40.8516 -36.6367 -40.8516h-19.5312c-4.1123 -41.2275 -38.999 -73.5312 -81.292 -73.5312c-45.0508 0 -81.7021 36.6514 -81.7021 81.7021
c0 45.0498 36.6514 81.7012 81.7021 81.7012c42.293 0 77.1797 -32.3037 81.292 -73.5312h19.5312c11.1924 0 20.2959 10.9951 20.2959 24.5107v31.9395c-26.4082 3.95801 -46.7246 26.791 -46.7246 54.2842c0 3.17383 0.279297 6.31934 0.814453 9.41406l-31.0439 10.3486
c-10.7295 3.57617 -22.4521 13.9902 -27.2676 24.2246l-33.5967 71.3916c-6.34473 13.4863 -24.2979 24.8789 -39.2021 24.8789h-168.852c-15.8008 0 -38.2998 -9.7207 -49.1289 -21.2275l-75.3389 -80.0498c-4.69922 -4.99219 -8.97852 -15.7832 -8.97852 -22.6396
v-102.563c0 -13.5156 10.9961 -24.5107 24.5098 -24.5107h15.3174c4.1123 41.2275 38.999 73.5322 81.292 73.5322s77.1807 -32.3047 81.293 -73.5322h49.5752c4.51367 0 8.16992 -3.6582 8.16992 -8.16992c0 -4.5127 -3.65625 -8.1709 -8.16992 -8.1709h-49.5752
c-4.1123 -41.2275 -39 -73.5312 -81.293 -73.5312s-77.1797 32.3037 -81.292 73.5312h-15.3174c-22.5254 0 -40.8506 18.3252 -40.8506 40.8516v102.563c0 10.9805 5.89453 25.8438 13.4209 33.8398l75.3379 80.0479c13.917 14.7871 40.7236 26.3691 61.0283 26.3691
h168.852c21.2334 0 44.9473 -15.0488 53.9883 -34.2607l33.5957 -71.3916c2.8623 -6.08105 11.2744 -13.5547 17.6514 -15.6807c0 0 38.1943 -12.7314 38.2129 -12.7373c27.5215 -9.17383 49.9131 -40.2402 49.9131 -69.251zM137.46 160.462
c-36.04 0 -65.3613 -29.3213 -65.3613 -65.3613c0 -36.041 29.3213 -65.3623 65.3613 -65.3623s65.3613 29.3213 65.3613 65.3623c0 36.04 -29.3213 65.3613 -65.3613 65.3613zM374.54 29.7383c36.04 0 65.3613 29.3213 65.3613 65.3623
c0 36.04 -29.3213 65.3613 -65.3613 65.3613c-36.041 0 -65.3613 -29.3213 -65.3613 -65.3613c0 -36.041 29.3203 -65.3623 65.3613 -65.3623zM465.275 214.004c0 -18.1016 12.5439 -33.3213 29.3916 -37.4443c-3.35156 16.2266 -14.9287 32.2871 -29.2646 40.5957
c-0.0839844 -1.04395 -0.126953 -2.0957 -0.126953 -3.15137z" />
    <glyph glyph-name="uniF106" unicode="&#xf106;" 
d="M441.113 79.0732c34.3037 -8.5752 53.1934 -29.627 53.1934 -59.2764v-57.8096c0 -14.3301 -11.6572 -25.9873 -25.9873 -25.9873h-424.639c-14.3301 0 -25.9873 11.6572 -25.9873 25.9873v57.8086c0 29.6504 18.8896 50.7021 53.1895 59.2764l80.9375 20.2246
c0.296875 0.442383 0.62207 0.868164 1.00781 1.25391l24.1025 24.1104v23.0811c-2.00586 2.04004 -3.9707 4.15625 -5.88086 6.3623c-22.4883 25.9697 -36.0088 60.958 -38.0732 98.5176c-0.0820312 1.48926 -0.157227 2.97852 -0.232422 4.46777
c-0.25293 5.01172 -0.493164 9.74512 -0.96875 14.499l-7.97461 79.75c-2.46582 24.667 5.65918 49.3574 22.2939 67.7383s40.3936 28.9229 65.1846 28.9229h89.4414c24.791 0 48.5508 -10.542 65.1846 -28.9238s24.7588 -43.0693 22.292 -67.7373l-7.97949 -79.8037
c-0.473633 -4.73633 -0.710938 -9.42969 -0.961914 -14.3994c-0.0751953 -1.50293 -0.151367 -3.00684 -0.234375 -4.51367c-2.06445 -37.5596 -15.5859 -72.5479 -38.0742 -98.5176c-1.91016 -2.20605 -3.87402 -4.32324 -5.87988 -6.3623v-23.0811l24.1016 -24.1113
c0.395508 -0.395508 0.727539 -0.834961 1.0293 -1.29004zM247.153 -10.9199c-0.617188 0 -1.22656 0.0292969 -1.83301 0.0712891l-6.22461 -36.5635h33.8076l-6.22363 36.5635c-0.606445 -0.0419922 -1.21582 -0.0712891 -1.83301 -0.0712891h-17.6934zM274.246 15.0674
v13.2539l-18.2461 12.1641l-18.2461 -12.1641v-13.2539c0 -5.18359 4.2168 -9.40039 9.39941 -9.40039h17.6934c5.18262 0 9.39941 4.2168 9.39941 9.40039zM193.521 133.521v-8.86035l62.4795 -62.4795l62.4795 62.4795v8.86035
c-18.7617 -13.4121 -40.2217 -20.5889 -62.4795 -20.5889s-43.7178 7.17773 -62.4795 20.5889zM287.188 39.6299l18.5137 -12.3428c0.0556641 -0.0361328 0.223633 -0.147461 0.458008 -0.0908203c0.204102 0.0498047 0.275391 0.178711 0.30957 0.240234
c18.1914 32.7119 31.0752 55.8984 36.5615 65.7969l-16.2578 16.2637l-57.7549 -57.7539l18.1436 -12.0957c0.00878906 -0.00683594 0.0175781 -0.0126953 0.0263672 -0.0175781zM158.394 407.946c-13.4951 -14.9131 -20.0879 -34.9443 -18.0859 -54.9561l5.80371 -58.042
c5.93164 11.1855 13.9277 23.9414 24.0918 35.2861c1.60059 1.78906 3.90039 2.80469 6.2998 2.75879c35.5723 -0.523438 132.646 1.37012 154.441 16.251c3.69141 2.52051 8.7207 1.66016 11.3633 -1.94531c0.730469 -0.99707 13.1289 -18.1025 24.335 -44.8086
l5.05078 50.501c2.00098 20.0127 -4.59082 40.043 -18.0859 54.9551c-13.4971 14.9141 -32.7725 23.4658 -52.8867 23.4658h-89.4414c-20.1133 0 -39.3896 -8.55176 -52.8857 -23.4658zM149.54 253.531c3.82324 -69.5391 50.5859 -124.011 106.46 -124.011
s102.637 54.4717 106.458 124.011c0.0820312 1.4834 0.15625 2.96289 0.231445 4.44141c0.0546875 1.0625 0.108398 2.1377 0.166016 3.21484c-7.90527 32.9512 -22.8916 59.2002 -30 70.4141c-36.0508 -15.2891 -129.784 -15.4404 -152.733 -15.2383
c-18.8145 -22.3291 -29.1816 -50.293 -30.9688 -55.3662c0.0546875 -1.02734 0.107422 -2.05371 0.158203 -3.06738c0.0742188 -1.4668 0.148438 -2.93164 0.228516 -4.39844zM185.228 109.497l-16.2568 -16.2646c5.48633 -9.89844 18.3701 -33.085 36.5615 -65.7979
c0.0332031 -0.0605469 0.104492 -0.19043 0.308594 -0.239258c0.235352 -0.0566406 0.40332 0.0537109 0.458008 0.0908203l18.5156 12.3447c0.00683594 0.00390625 0.0146484 0.00976562 0.0205078 0.0146484l18.1475 12.0977zM34.2803 -38.0127
c0 -5.18359 4.2168 -9.39941 9.40039 -9.39941h53.6328v44.7861c0 4.58008 3.71289 8.29297 8.29297 8.29297c4.58105 0 8.29395 -3.71289 8.29395 -8.29297v-44.7861h108.371l7.37012 43.2988c-5.2041 4.75586 -8.47461 11.5928 -8.47461 19.1816v2.19629l-5.66699 -3.7793
c-2.84766 -1.89746 -6.18555 -2.8877 -9.55176 -2.8877c-1.34277 0 -2.68848 0.15625 -4.01172 0.477539c-4.61523 1.11621 -8.58984 4.14258 -10.9004 8.29785c-20.7393 37.293 -30.6543 55.1348 -35.4355 63.7686l-80.6963 -20.1611
c-26.9551 -6.73926 -40.624 -21.2686 -40.624 -43.1846v-57.8086zM477.719 -38.0127v57.8096c0 21.915 -13.668 36.4443 -40.626 43.1836l-80.709 20.1348c-4.78711 -8.64551 -14.7031 -26.4883 -35.4199 -63.7422c-2.31055 -4.15723 -6.28516 -7.18164 -10.9014 -8.29883
c-1.32129 -0.320312 -2.66797 -0.478516 -4.01074 -0.478516c-3.36621 0 -6.7041 0.990234 -9.55176 2.88867l-5.66699 3.77832v-2.19531c0 -7.58887 -3.27051 -14.4268 -8.47461 -19.1826l7.37012 -43.2969h108.371v44.7861c0 4.58008 3.71289 8.29297 8.29297 8.29297
c4.58105 0 8.29395 -3.71289 8.29395 -8.29297v-44.7861h53.6328c5.18359 0 9.39941 4.21582 9.39941 9.39941z" />
    <glyph glyph-name="uniF121" unicode="&#xf121;" 
d="M355.933 324.197c0 -4.51367 -3.65723 -8.16992 -8.16895 -8.16992h-183.526c-4.51172 0 -8.16992 3.65625 -8.16992 8.16992s3.6582 8.16992 8.16992 8.16992h183.525c4.5127 0 8.16992 -3.65625 8.16992 -8.16992zM77.9414 41.6855l-22.1191 155.524
c-0.517578 3.63379 1.45215 7.16602 4.81445 8.63672l56.6387 24.7656l6.88672 106.961c0.974609 15.1504 14.1191 27.4746 29.3008 27.4746h51.3096v66.0674c0 3.08496 1.73926 5.90625 4.49316 7.29492c0.776367 0.392578 19.335 9.58984 46.7344 9.58984
c27.3984 0 45.958 -9.19727 46.7334 -9.58984c2.75391 -1.38867 4.49121 -4.20996 4.49121 -7.29492v-66.0674h51.3105c15.1816 0 28.3242 -12.3252 29.3008 -27.4756l6.88672 -106.96l56.6387 -24.7656c3.36328 -1.4707 5.33301 -5.00293 4.81543 -8.63672
l-22.1182 -155.511c-0.635742 -4.4668 -4.78223 -7.58691 -9.23828 -6.9375c-4.4668 0.634766 -7.57422 4.77051 -6.9375 9.2373l21.2432 149.362l-55.5469 24.2891c-0.046875 0.0205078 -0.0947266 0.0400391 -0.141602 0.0615234l-119.268 52.1514v-227.65
c0 -4.51367 -3.65625 -8.16992 -8.16992 -8.16992c-4.51172 0 -8.16992 3.65625 -8.16992 8.16992v227.65l-174.956 -76.501l21.2451 -149.377c0.635742 -4.4668 -2.4707 -8.60254 -6.93848 -9.23926c-0.388672 -0.0556641 -0.77832 -0.0810547 -1.16016 -0.0810547
c-4.00293 0 -7.49902 2.94336 -8.0791 7.02051zM221.113 425.686v-60.6387h69.7725v60.6182c-6.31445 2.31738 -18.8604 5.99414 -34.8857 5.99414c-16.1641 0 -28.6152 -3.6543 -34.8867 -5.97363zM140.469 336.523l-6.3457 -98.5439s118.603 51.8604 118.63 51.8701
c0.228516 0.100586 0.464844 0.1875 0.704102 0.265625c0.0244141 0.0078125 0.0458984 0.0175781 0.0703125 0.0253906c0.558594 0.177734 1.14453 0.292969 1.74902 0.34668c0.479492 0.0419922 0.960938 0.0419922 1.44043 0
c0.606445 -0.0527344 1.19434 -0.168945 1.75488 -0.34668c0.0205078 -0.00683594 0.0410156 -0.0166016 0.0625 -0.0234375c0.241211 -0.0791016 0.480469 -0.167969 0.738281 -0.27832l118.602 -51.8594l-6.34375 98.5439
c-0.425781 6.60449 -6.37695 12.1846 -12.9951 12.1846h-205.072c-6.61816 0 -12.5684 -5.58008 -12.9941 -12.1846zM8.16992 1.36133c-4.51172 0 -8.16992 3.65723 -8.16992 8.1709c0 4.5127 3.6582 8.16992 8.16992 8.16992c13.8076 0 26.4717 6.42285 34.7451 17.6191
c1.54102 2.08398 3.97754 3.31543 6.57031 3.31543s5.0293 -1.22949 6.57129 -3.31348c8.1582 -11.0342 21.1338 -17.6211 34.7109 -17.6211c13.6289 0 26.6338 6.58594 34.7861 17.6191c1.54004 2.08496 3.97949 3.31543 6.57812 3.31543
c2.59473 -0.00292969 5.03418 -1.23828 6.57227 -3.32715c8.11426 -11.0254 21.0879 -17.6074 34.7002 -17.6074c13.7725 0 26.4404 6.42578 34.7549 17.6338c1.54199 2.07617 3.97559 3.30078 6.57812 3.30078c2.5918 -0.00585938 5.02637 -1.24023 6.56348 -3.32715
c8.11523 -11.0254 21.0879 -17.6074 34.7012 -17.6074c13.6045 0 26.5928 6.58691 34.748 17.6191c1.54004 2.08496 3.97656 3.31543 6.56934 3.31543c2.5918 0 5.0293 -1.23047 6.57031 -3.31445c8.27637 -11.1973 20.9287 -17.6201 34.71 -17.6201
c13.6055 0 26.5928 6.58594 34.7451 17.6191c1.54102 2.08496 3.97852 3.31543 6.57129 3.31543s5.03027 -1.23047 6.57129 -3.31543c8.15234 -11.0332 21.1416 -17.6191 34.7461 -17.6191c13.6123 0 26.585 6.58203 34.7002 17.6074
c1.53809 2.08887 3.97754 3.32422 6.58008 3.32715c2.59277 0 5.0293 -1.23047 6.57031 -3.31543c8.27441 -11.1963 20.9395 -17.6191 34.7461 -17.6191c4.5127 0 8.16992 -3.65723 8.16992 -8.16992c0 -4.51367 -3.65723 -8.1709 -8.16992 -8.1709
c-15.4326 0 -30.2793 6.12988 -41.3076 16.7529c-11.0039 -10.623 -25.8438 -16.7529 -41.2891 -16.7529c-15.4365 0 -30.2891 6.13379 -41.3174 16.7617c-11.0283 -10.6279 -25.8799 -16.7617 -41.3164 -16.7617c-15.6729 0 -30.2764 6.00391 -41.3027 16.7393
c-11.0283 -10.6133 -25.8691 -16.7393 -41.2949 -16.7393c-15.4375 0 -30.2734 6.12598 -41.2754 16.7393c-11.0518 -10.7354 -25.6621 -16.7393 -41.3223 -16.7393c-15.4443 0 -30.2852 6.13086 -41.29 16.7539c-11.0312 -10.624 -25.8926 -16.7539 -41.3467 -16.7539
c-15.4141 0 -30.2529 6.13379 -41.2803 16.7617c-11.0283 -10.627 -25.8809 -16.7617 -41.3174 -16.7617zM503.83 -47.6592c4.5127 -0.000976562 8.16992 -3.65723 8.16992 -8.1709c0 -4.5127 -3.65723 -8.16992 -8.16992 -8.16992
c-15.4326 0 -30.2793 6.12988 -41.3076 16.752c-11.0039 -10.6221 -25.8438 -16.752 -41.2891 -16.752c-15.4365 0 -30.2891 6.13281 -41.3174 16.7607c-11.0283 -10.6279 -25.8799 -16.7607 -41.3164 -16.7607c-15.6729 0 -30.2764 6.00293 -41.3027 16.7393
c-11.0283 -10.6143 -25.8691 -16.7393 -41.2949 -16.7393c-15.4375 0 -30.2734 6.125 -41.2754 16.7393c-11.0518 -10.7363 -25.6621 -16.7393 -41.3223 -16.7393c-15.4443 0 -30.2852 6.13086 -41.29 16.7529c-11.0322 -10.623 -25.8926 -16.7529 -41.3467 -16.7529
c-15.4141 0 -30.2529 6.13281 -41.2803 16.7607c-11.0283 -10.627 -25.8809 -16.7607 -41.3174 -16.7607c-4.51172 0 -8.16992 3.65723 -8.16992 8.16992c0 4.51367 3.6582 8.16992 8.16992 8.16992c13.8076 0 26.4717 6.42383 34.7451 17.6201
c1.54102 2.08398 3.97754 3.31445 6.57031 3.31445s5.0293 -1.22852 6.57129 -3.3125c8.1582 -11.0342 21.1338 -17.6211 34.7109 -17.6211c13.6289 0 26.6338 6.58594 34.7861 17.6191c1.54004 2.08496 3.97852 3.31445 6.57812 3.31445
c2.59473 -0.00195312 5.03418 -1.2373 6.57227 -3.32715c8.11426 -11.0254 21.0879 -17.6064 34.7002 -17.6064c13.7715 0 26.4404 6.42578 34.7549 17.6328c1.54199 2.07617 3.97559 3.30078 6.57812 3.30078c2.5918 -0.00488281 5.02637 -1.23926 6.56348 -3.32617
c8.11523 -11.0264 21.0879 -17.6074 34.7012 -17.6074c13.6045 0 26.5928 6.58691 34.7471 17.6191c1.54102 2.08496 3.97754 3.31445 6.57031 3.31445c2.5918 0 5.0293 -1.22949 6.57031 -3.31348c8.27637 -11.1973 20.9287 -17.6201 34.71 -17.6201
c13.6055 0 26.5928 6.58594 34.7451 17.6191c1.54004 2.08496 3.97852 3.31445 6.57129 3.31445s5.03027 -1.22949 6.57129 -3.31445c8.15234 -11.0332 21.1416 -17.6191 34.7461 -17.6191c13.6123 0 26.585 6.58203 34.7002 17.6074
c1.53809 2.08887 3.97754 3.32422 6.58008 3.32617c2.59277 0 5.0293 -1.22949 6.57031 -3.31445c8.27441 -11.1963 20.9395 -17.6191 34.7461 -17.6191z" />
    <glyph glyph-name="uniF116" unicode="&#xf116;" 
d="M256.008 171.87c-48.2783 0 -87.5664 39.2881 -87.5664 87.582c0 48.293 39.2725 87.582 87.5664 87.582c48.293 0 87.5664 -39.2891 87.5664 -87.582c0 -48.2939 -39.2881 -87.582 -87.5664 -87.582zM256.008 331.6c-39.7822 0 -72.1475 -32.3652 -72.1475 -72.1631
c0 -39.7969 32.3652 -72.1621 72.1475 -72.1621s72.1475 32.3652 72.1475 72.1621c0 39.7979 -32.3652 72.1631 -72.1475 72.1631zM256.008 -64c-2.28223 0 -4.44043 1.00195 -5.90527 2.75977c-7.46387 8.89746 -182.627 219.187 -182.627 320.677
c0 103.973 84.5752 188.563 188.532 188.563s188.532 -84.5908 188.532 -188.563c0 -101.506 -175.164 -311.779 -182.611 -320.692c-1.48047 -1.74219 -3.6543 -2.74414 -5.9209 -2.74414zM256.008 432.581c-95.4609 0 -173.113 -77.668 -173.113 -173.145
c0 -85.9014 142.104 -265.444 173.113 -303.576c30.9932 38.1475 173.113 217.69 173.113 303.576c-0.015625 95.4766 -77.668 173.145 -173.113 173.145z" />
    <glyph glyph-name="uniF11A" unicode="&#xf11a;" 
d="M421.309 328.653c-4.41602 0 -8 3.58301 -8 7.99902c0 4.41699 3.58301 8 8 8h41.3281c13.5664 0 25.9307 -5.54883 34.8643 -14.4824l0.500977 -0.548828c8.64844 -8.90039 13.9971 -21.0156 13.9971 -34.2979v-247.976c0 -13.5811 -5.5498 -25.9141 -14.4824 -34.8467
c-8.93359 -8.93164 -21.2988 -14.4814 -34.8633 -14.4814h-413.291c-13.5654 0 -25.9316 5.54883 -34.8467 14.4814c-8.96582 8.91602 -14.5156 21.248 -14.5156 34.8291v247.993c0 13.5654 5.5498 25.9316 14.4814 34.8467
c8.93262 8.93359 21.2812 14.4824 34.8643 14.4824h165.316c4.41699 0 8 -3.58301 8 -8c0 -4.41602 -3.58301 -7.99902 -8 -7.99902h-165.316c-9.15039 0 -17.499 -3.76562 -23.5312 -9.79883c-6.0498 -6.04883 -9.81543 -14.3809 -9.81543 -23.5312v-247.976
c0 -9.14941 3.76562 -17.4805 9.79883 -23.5312c6.03223 -6.0332 14.3809 -9.79883 23.5303 -9.79883h413.293c9.14941 0 17.499 3.76562 23.5312 9.79883c6.04883 6.0332 9.79883 14.3818 9.79883 23.5312v247.976c0 8.96582 -3.59961 17.165 -9.39844 23.1807
l-0.400391 0.367188c-6.01562 6.01562 -14.3652 9.78125 -23.5137 9.78125l-41.3301 0.000976562v0zM497.985 329.62l-0.500977 -10.7666c2.9502 2.93457 3.11719 7.61621 0.500977 10.7666zM263.991 336.652c0 -4.41602 -3.58203 -7.99902 -8 -7.99902
c-4.41602 0 -7.99902 3.58301 -7.99902 7.99902c0 13.582 5.5498 25.915 14.4824 34.8477c8.91504 8.93164 21.2646 14.4814 34.8291 14.4814h82.6611c13.5645 0 25.9287 -5.5498 34.8447 -14.4814c8.93359 -8.93359 14.4824 -21.2656 14.4824 -34.8477
c0 -4.41602 -3.58301 -7.99902 -8 -7.99902c-4.41504 0 -7.99902 3.58301 -7.99902 7.99902c0 9.15039 -3.7666 17.499 -9.79883 23.5312c-6.01562 6.0332 -14.3672 9.79883 -23.5146 9.79883h-82.6582c-9.15039 0 -17.4824 -3.76562 -23.5312 -9.79883
c-6.0498 -6.04883 -9.79883 -14.3818 -9.79883 -23.5312zM379.979 344.652c4.41602 0 7.99902 -3.58301 7.99902 -8c0 -4.41602 -3.58203 -7.99902 -7.99902 -7.99902h-82.6582c-4.41699 0 -8.00098 3.58301 -8.00098 7.99902c0 4.41699 3.58398 8 8.00098 8h82.6582z
M69.9932 287.823c6.5 0 12.3828 -2.64941 16.6152 -6.88184c4.2334 -4.25 6.88281 -10.1328 6.88281 -16.6152c0 -6.5 -2.64941 -12.3818 -6.88281 -16.6152h-0.0332031c-4.25 -4.25 -10.1152 -6.89941 -16.582 -6.89941c-6.46582 0 -12.3311 2.64941 -16.5811 6.88281
h-0.0332031c-4.25 4.25 -6.88281 10.1494 -6.88281 16.6152s2.64941 12.332 6.88281 16.5811v0.0507812c4.24805 4.23242 10.1309 6.88184 16.6143 6.88184v0zM75.293 269.609c-1.34961 1.34961 -3.2334 2.2002 -5.2998 2.2002
c-2.04883 0 -3.94922 -0.850586 -5.29883 -2.2002l-0.0175781 0.0175781c-1.33203 -1.34961 -2.16504 -3.23242 -2.16504 -5.31641c0 -2.06641 0.833008 -3.94922 2.19922 -5.29883l-0.0341797 -0.0166016c1.35059 -1.33301 3.25098 -2.16699 5.31641 -2.16699
c2.08398 0 3.9668 0.833984 5.31641 2.16699l-0.0166016 0.0166016c1.34961 1.35059 2.2002 3.25 2.2002 5.2998c-0.000976562 2.04883 -0.850586 3.94824 -2.2002 5.29785zM338.65 287.823c32.1152 0 61.2266 -13.0312 82.3252 -34.1289l0.0175781 -0.0166016
l0.0175781 -0.0175781c21.0811 -21.0977 34.1299 -50.2119 34.1299 -82.3252c0 -32.1641 -13.0488 -61.3105 -34.1123 -82.376h-0.0332031c-21.0811 -21.0811 -50.2119 -34.1123 -82.3438 -34.1123c-32.1621 0 -61.3096 13.0488 -82.374 34.1123
c-21.0654 21.0635 -34.1143 50.2119 -34.1143 82.376c0 32.1299 13.0322 61.2607 34.1143 82.3428v0.0332031c21.0625 21.0645 50.209 34.1123 82.373 34.1123v0zM409.693 242.412c-18.165 18.165 -43.2773 29.3975 -71.043 29.3975
c-27.7471 0 -52.8789 -11.249 -71.0586 -29.4307l-0.0175781 0.0166016c-18.165 -18.1816 -29.4141 -43.3135 -29.4141 -71.0752c0 -27.748 11.248 -52.8799 29.4297 -71.0596c18.1807 -18.1816 43.3115 -29.4316 71.0586 -29.4316
c27.7646 0 52.8955 11.249 71.0771 29.4141l-0.0175781 0.0175781c18.1807 18.1797 29.4307 43.3115 29.4307 71.0586c0 27.7803 -11.2324 52.8955 -29.3975 71.0596zM338.65 251.661c22.1826 0 42.2793 -8.99902 56.7959 -23.5312v-0.0332031
c14.5322 -14.5322 23.5312 -34.6133 23.5312 -56.7617c0 -22.1641 -8.99902 -42.2295 -23.5312 -56.7773v-0.0332031c-14.5166 -14.5156 -34.6133 -23.5312 -56.7959 -23.5312c-22.1816 0 -42.2793 8.99902 -56.8115 23.5312v0.0332031
c-14.5303 14.5498 -23.5303 34.6133 -23.5303 56.7773s9 42.2295 23.5303 56.7607v0.0332031c14.5322 14.5166 34.6299 23.5322 56.8115 23.5322v0zM384.146 216.831l-0.0175781 -0.0166016c-11.6318 11.6318 -27.7139 18.8311 -45.4785 18.8311
c-17.7637 0 -33.8643 -7.21582 -45.4775 -18.8311l-0.0332031 0.0166016c-11.6162 -11.6484 -18.8145 -27.7295 -18.8145 -45.5117c0 -17.7646 7.19824 -33.8799 18.8145 -45.5117l0.0166016 0.0175781c11.6318 -11.6318 27.7305 -18.832 45.4785 -18.832
c17.749 0 33.8477 7.21582 45.4795 18.832l0.0166016 -0.0175781c11.6152 11.6318 18.8145 27.7471 18.8145 45.5117c0.0322266 17.7812 -7.16602 33.8623 -18.7988 45.5117zM310.487 171.318c0 -4.41602 -3.58301 -7.99902 -8 -7.99902
c-4.41504 0 -7.99902 3.58301 -7.99902 7.99902c0 5.93262 1.20117 11.6494 3.36621 16.8818l0.183594 0.416992c2.24902 5.2998 5.46582 10.0332 9.38184 13.9316c4.0332 4.0332 8.91602 7.31641 14.3486 9.56641c5.24902 2.16602 10.9648 3.36621 16.8984 3.36621
c4.41406 0 7.99902 -3.58301 7.99902 -7.99902s-3.58301 -7.99902 -7.99902 -7.99902c-3.86719 0 -7.5 -0.75 -10.7656 -2.10059c-3.41602 -1.41602 -6.5332 -3.53223 -9.15039 -6.13281c-2.5166 -2.5166 -4.56641 -5.4834 -5.96582 -8.71582l-0.166016 -0.43457
c-1.38281 -3.26562 -2.13184 -6.93066 -2.13184 -10.7812zM116.488 95.0098c4.41699 0 8 -3.58301 8 -7.99902s-3.58301 -7.99902 -8 -7.99902h-61.9941c-4.41602 0 -7.99902 3.58203 -7.99902 7.99902c0 4.41504 3.58301 7.99902 7.99902 7.99902h61.9941z" />
    <glyph glyph-name="uniF120" unicode="&#xf120;" 
d="M401.289 110.348c48.2363 0 87.1738 -38.9375 87.1738 -87.1738s-38.9375 -87.1738 -87.1738 -87.1738c-48.2354 0 -87.1729 38.9375 -87.1729 87.1738c0 11.623 2.32422 23.2461 6.39258 33.126l-141.222 81.9434c-15.6914 -20.3408 -40.6807 -33.707 -68.5762 -33.707
c-48.2363 0 -87.1738 38.9375 -87.1738 87.1729c0 48.2363 38.9375 87.1738 87.1738 87.1738c27.8955 0 52.3037 -13.3662 68.5762 -33.707l141.222 82.5244c-4.06836 9.87988 -6.39258 21.5029 -6.39258 33.126c0 48.2363 38.9375 87.1738 87.1729 87.1738
c48.2363 0 87.1738 -38.9375 87.1738 -87.1738s-38.9375 -87.1738 -87.1738 -87.1738c-27.8955 0 -52.8848 13.3672 -68.5762 33.707l-141.222 -81.9424c8.71777 -21.5029 8.71777 -45.3311 0 -66.834l141.222 -81.9424c15.6914 20.3398 40.6807 33.707 68.5762 33.707z
M401.289 424.173c-35.4502 0 -63.9268 -28.4775 -63.9268 -63.9277s28.4766 -63.9277 63.9268 -63.9277c35.4512 0 63.9277 28.4775 63.9277 63.9277s-28.4766 63.9277 -63.9277 63.9277zM110.711 127.782c35.4502 0 63.9268 28.4766 63.9268 63.9268
c0 35.4512 -28.4766 63.9277 -63.9268 63.9277c-35.4512 0 -63.9277 -28.4766 -63.9277 -63.9277c0 -35.4502 28.4766 -63.9268 63.9277 -63.9268zM401.289 -40.7539c35.4512 0 63.9277 28.4766 63.9277 63.9277c0 35.4502 -28.4766 63.9268 -63.9277 63.9268
c-35.4502 0 -63.9268 -28.4766 -63.9268 -63.9268c0 -35.4512 28.4766 -63.9277 63.9268 -63.9277z" />
    <glyph glyph-name="uniF123" unicode="&#xf123;" 
d="M423.74 61.9893c3.90625 -2.06543 5.39746 -6.90527 3.33301 -10.8115c-37.5625 -71.0439 -110.777 -115.178 -191.073 -115.178c-57.6963 0 -111.938 22.4678 -152.735 63.2646c-40.7969 40.7979 -63.2646 95.04 -63.2646 152.735
c0 40.1475 11.2637 79.4395 32.1162 113.313c0.360352 2.18262 1.59766 4.06738 3.34668 5.27441c4.41309 6.72266 9.20898 13.2188 14.3848 19.4434c2.8252 3.39551 7.87012 3.85742 11.2666 1.03613c3.39648 -2.82617 3.86035 -7.87012 1.03613 -11.2676
c-2.12012 -2.5498 -4.16504 -5.15332 -6.14941 -7.79883h30.1553c1.2002 0.285156 2.46973 0.300781 3.71387 0h65.7031c6.91699 32.5166 16.9395 60.4609 29.9961 77.6816c-5.29102 -0.806641 -10.5439 -1.80859 -15.7344 -3.03516
c-4.29785 -1.01367 -8.60938 1.64551 -9.625 5.94629c-1.01562 4.2998 1.64648 8.6084 5.94629 9.625c16.2383 3.83594 33.0088 5.78125 49.8438 5.78125c38.5889 0 76.4629 -10.3018 109.526 -29.791c28.5166 -16.8076 52.8564 -40.042 71.0156 -67.6279
c1.72656 -1.19434 2.95508 -3.05078 3.3291 -5.20215c1.0957 -1.77246 2.1748 -3.55664 3.21973 -5.36328c2.21289 -3.82422 0.90625 -8.71777 -2.91797 -10.9307c-1.26172 -0.728516 -2.63867 -1.07617 -3.99902 -1.07617c-2.76172 0 -5.44922 1.43262 -6.93164 3.99512
c-0.77832 1.3457 -1.58984 2.66992 -2.39941 3.99609h-30.502c2.82031 -6.96289 5.38086 -14.1855 7.65723 -21.6543c1.28809 -4.22461 -1.09375 -8.69531 -5.32031 -9.9834c-0.776367 -0.238281 -1.5625 -0.350586 -2.33496 -0.350586
c-3.42676 0 -6.59766 2.22168 -7.64844 5.66992c-2.80176 9.18945 -6.05371 17.9746 -9.70996 26.3184h-59.5156c5.21289 -29.9434 8.07715 -63.1436 8.47852 -96h40.0527c4.41797 0 8 -3.58203 8 -8s-3.58203 -8 -8 -8h-40.0527
c-0.365234 -29.9561 -2.77637 -60.2002 -7.15039 -88h61.4512c4.29395 10.8037 7.87207 22.1377 10.6348 33.8408c1.01562 4.2998 5.3252 6.96094 9.62402 5.94824c4.2998 -1.01562 6.96289 -5.32422 5.94824 -9.62402
c-2.46094 -10.4229 -5.47949 -20.4951 -9.01465 -30.165h32.0537c0.482422 0.880859 0.962891 1.76465 1.43359 2.65625c2.06543 3.9043 6.90527 5.39941 10.8125 3.33301zM355.173 40h-57.1689c-6.64844 -34.5996 -16.5508 -64.2061 -29.5264 -82.8779
c18.667 5.99023 36.3203 17.1641 52.1309 33.166c13.5 13.665 25.2119 30.6064 34.5645 49.7119zM296.39 272h54.7979c-20.3516 37.7188 -49.6377 64.2568 -82.6982 74.8633c11.958 -17.2168 21.3047 -43.7227 27.9004 -74.8633zM337.404 324.425
c-3.57715 2.1084 -7.22168 4.08887 -10.9141 5.96387c16.7148 -15.4297 31.248 -35.167 42.6855 -58.3887h26.8115c-15.8496 21.0869 -35.7705 38.9785 -58.583 52.4248zM202.571 309.13c-4.0332 -10.9189 -7.60547 -23.4238 -10.6523 -37.1299h88.1797
c-1.94336 8.70703 -4.10742 16.9805 -6.49023 24.7256c-10.6494 34.6113 -24.708 55.2744 -37.6084 55.2744c-11.0146 0 -23.5117 -16.0264 -33.4287 -42.8701zM172.704 184.017c-4.41113 0.263672 -7.77148 4.05371 -7.50684 8.46387
c1.29297 21.5723 3.72754 43.1904 7.28516 63.5195h-59.415c-12.7871 -29.0264 -19.9717 -61.9512 -20.9443 -96h15.877c4.41797 0 8 -3.58203 8 -8s-3.58203 -8 -8 -8h-15.874c0.905273 -31.7842 7.16992 -61.6846 17.5811 -88h6.29297c4.41797 0 8 -3.58203 8 -8
c0 -4.16992 -3.19141 -7.59082 -7.2627 -7.96289c20.0957 -41.1611 50.9355 -71.4199 86.8799 -82.9365c-5.10449 7.30273 -10.21 16.9512 -15.0869 29.6582c-1.58301 4.12402 0.476562 8.75195 4.60156 10.335c4.12402 1.5791 8.75195 -0.476562 10.335 -4.60254
c9.87598 -25.7324 21.7344 -40.4912 32.5332 -40.4912c12.9004 0 26.959 20.6631 37.6094 55.2754c3.10156 10.083 5.83594 21.0527 8.1875 32.7256h-29.7969c-4.41797 0 -8 3.58203 -8 8s3.58203 8 8 8h32.71c4.3877 26.8818 6.875 56.8086 7.23926 88h-39.9492
c-4.41797 0 -8 3.58203 -8 8s3.58203 8 8 8h39.9482c-0.401367 34.3223 -3.37305 67.1123 -8.62012 96h-94.6289c-3.59375 -19.833 -6.16211 -41.6387 -7.53125 -64.4766c-0.263672 -4.41016 -4.0459 -7.77441 -8.46387 -7.50781zM36.1738 144
c1.25684 -31.7842 9.95898 -61.6846 24.418 -88h31.9492c-9.96191 27.1367 -15.5928 57.0059 -16.4219 88h-39.9453zM95.6963 256h-30.5254c-17.5723 -28.8906 -27.6357 -61.9834 -29.0039 -96h39.9453c0.914062 33.7773 7.62402 66.5791 19.584 96zM70.3809 40
c18.9756 -27.9697 44.8428 -50.8994 75.1426 -66.334c-8.33984 7.73828 -16.1982 16.5947 -23.4639 26.5361c-8.88867 12.1641 -16.5723 25.5234 -22.9902 39.7979h-28.6885zM326.126 -26.6143c30.124 15.1895 56.2529 37.9502 75.6094 66.6133h-28.7852
c-10.5215 -23.4941 -24.3398 -44.1338 -40.9609 -60.957c-1.92871 -1.95117 -3.88379 -3.83301 -5.86328 -5.65625zM103.35 289.49c-2.42285 1.73047 -59.3496 42.9854 -59.3496 94.5098c0 35.29 28.71 64 64 64s64 -28.71 64 -64
c0 -50.4775 -56.8535 -92.6826 -59.2744 -94.4551c-1.40527 -1.0293 -3.06543 -1.54492 -4.72559 -1.54492c-1.62891 0 -3.25781 0.496094 -4.65039 1.49023zM108 432c-26.4668 0 -48 -21.5322 -48 -48c0 -35.46 35.0322 -67.2939 47.9492 -77.8252
c12.9062 10.7148 48.0508 43.0898 48.0508 77.8252c0 26.4678 -21.5332 48 -48 48zM140 384c0 -17.6445 -14.3555 -32 -32 -32s-32 14.3555 -32 32s14.3555 32 32 32c4.41797 0 8 -3.58203 8 -8s-3.58203 -8 -8 -8c-8.82227 0 -16 -7.17773 -16 -16s7.17773 -16 16 -16
s16 7.17773 16 16c0 4.41797 3.58203 8 8 8s8 -3.58203 8 -8zM428 232c35.29 0 64 -28.71 64 -64c0 -50.4775 -56.8535 -92.6826 -59.2744 -94.4551c-1.40527 -1.0293 -3.06543 -1.54492 -4.72559 -1.54492c-1.62891 0 -3.25781 0.496094 -4.65039 1.49023
c-2.42285 1.73047 -59.3496 42.9854 -59.3496 94.5098c0 35.29 28.71 64 64 64zM427.949 90.1748c12.9062 10.7148 48.0508 43.0898 48.0508 77.8252c0 26.4678 -21.5332 48 -48 48s-48 -21.5322 -48 -48c0 -35.46 35.0322 -67.2939 47.9492 -77.8252zM452 176
c4.41797 0 8 -3.58203 8 -8c0 -17.6445 -14.3555 -32 -32 -32s-32 14.3555 -32 32s14.3555 32 32 32c4.41797 0 8 -3.58203 8 -8s-3.58203 -8 -8 -8c-8.82227 0 -16 -7.17773 -16 -16s7.17773 -16 16 -16s16 7.17773 16 16c0 4.41797 3.58203 8 8 8zM116 104
c0 35.29 28.71 64 64 64s64 -28.71 64 -64c0 -50.4775 -56.8535 -92.6826 -59.2744 -94.4551c-1.40527 -1.0293 -3.06543 -1.54492 -4.72559 -1.54492c-1.62891 0 -3.25781 0.496094 -4.65039 1.49023c-2.42285 1.73047 -59.3496 42.9854 -59.3496 94.5098zM180 152
c-26.4668 0 -48 -21.5322 -48 -48c0 -35.46 35.0322 -67.2939 47.9492 -77.8252c12.9062 10.7148 48.0508 43.0898 48.0508 77.8252c0 26.4678 -21.5332 48 -48 48zM180 72c-17.6445 0 -32 14.3555 -32 32s14.3555 32 32 32c4.41797 0 8 -3.58203 8 -8s-3.58203 -8 -8 -8
c-8.82227 0 -16 -7.17773 -16 -16s7.17773 -16 16 -16s16 7.17773 16 16c0 4.41797 3.58203 8 8 8s8 -3.58203 8 -8c0 -17.6445 -14.3555 -32 -32 -32z" />
    <glyph glyph-name="uniF102" unicode="&#xf102;" 
d="M97.7881 -51.4668l30.2188 176.188l-128.007 124.768l176.896 25.6963l79.0986 160.291l79.1172 -160.291l176.888 -25.6963l-127.987 -124.776l30.2188 -176.189l-158.236 83.1807zM256.005 53.3105l132.844 -69.8359l-25.3623 147.902l107.454 104.757
l-148.503 21.5762l-66.4316 134.565l-66.4033 -134.565l-148.514 -21.5762l107.454 -104.757l-25.3613 -147.902z" />
    <glyph glyph-name="uniF10C" unicode="&#xf10c;" 
d="M256 -64c-141.385 0 -256 114.615 -256 256s114.615 256 256 256s256 -114.615 256 -256s-114.615 -256 -256 -256zM256 416c-123.514 0 -224 -100.485 -224 -224c0 -123.514 100.486 -224 224 -224s224 100.486 224 224c0 123.515 -100.486 224 -224 224z
M374.656 270.859l-163.938 -179.312l-73.375 86.5469l24.4062 20.6875l49.875 -58.8291l139.406 152.501z" />
    <glyph glyph-name="uniF10F" unicode="&#xf10f;" 
d="M490.042 21.4033c7.38965 -4.85547 10.9795 -13.6182 8.97363 -22.2744c-1.90039 -8.44531 -8.7627 -14.7793 -17.4189 -15.9404c-8.12891 -1.16113 -16.3633 -1.68945 -24.4912 -1.68945c-25.6533 0 -49.1943 5.49023 -69.8857 16.2578
c-39.5879 -20.9023 -84.7705 -31.9873 -131.22 -31.9873c-67.9854 0 -132.064 23.3311 -180.309 65.6631c-48.7715 42.7549 -75.6914 99.7607 -75.6914 160.567s26.9199 117.812 75.6914 160.567c48.2441 42.332 112.323 65.6631 180.309 65.6631
s132.064 -23.3311 180.309 -65.6631c48.7715 -42.7549 75.6914 -99.7607 75.6914 -160.567c0 -48.9834 -18.1572 -96.9102 -51.4111 -135.971c6.8623 -14.6738 16.6797 -26.2861 29.4531 -34.626zM457.211 10.1084c0.421875 0 0.950195 0 1.68848 0.105469
c-12.2451 11.8232 -21.6406 26.3916 -28.0801 43.8096c-1.90039 4.96191 -0.739258 10.6631 2.84961 14.5684c32.6201 35.3652 49.9336 78.1201 49.9336 123.514c0 109.051 -102.083 197.728 -227.497 197.728c-125.413 0 -227.497 -88.6768 -227.497 -197.728
s102.084 -197.727 227.497 -197.727c44.2324 0 87.1982 11.1895 124.253 32.1973c4.43359 2.53418 9.92285 2.42871 14.3564 -0.210938c17.9463 -10.7676 38.9541 -16.2568 62.4961 -16.2568zM239.743 192c0 10.9089 5.4541 16.3633 16.3623 16.3633
c10.9088 0 16.3633 -5.45442 16.3633 -16.3633s-5.45444 -16.3633 -16.3633 -16.3633c-10.9082 0 -16.3623 5.45442 -16.3623 16.3633zM309.944 192c0 10.9089 5.45444 16.3633 16.3633 16.3633s16.3633 -5.45442 16.3633 -16.3633s-5.45444 -16.3633 -16.3633 -16.3633
s-16.3633 5.45442 -16.3633 16.3633zM169.541 192c0 10.9089 5.4541 16.3633 16.3623 16.3633c10.9089 0 16.3633 -5.45442 16.3633 -16.3633s-5.45442 -16.3633 -16.3633 -16.3633c-10.9082 0 -16.3623 5.45442 -16.3623 16.3633z" />
    <glyph glyph-name="uniF109" unicode="&#xf109;" 
d="M511.816 143.786v-44.4863v-0.00878906v-0.00976562v-52.7129c0 -10.1279 -8.23633 -18.3643 -18.3643 -18.3643h-24.3594c-10.127 0 -18.3633 8.23633 -18.3633 18.3643v43.5498h-389.633v-43.5498c0 -10.1279 -8.23633 -18.3643 -18.3643 -18.3643h-24.3691
c-10.127 0 -18.3633 8.23633 -18.3633 18.3643v52.7129v0.00976562v0.00878906v45.3857c0 47.3145 18.7031 76.7422 48.1777 95.0693v24.6074c0 52.502 38.9121 83.8486 104.095 83.8486c44.6699 0 76.9805 -14.7275 92.9111 -40.877
c14.0391 30.8779 48.1133 48.4619 96.9238 48.4619c65.1914 0 104.104 -31.3477 104.104 -83.8496v-26.9756c38.5732 -17.5566 64.9619 -47.4336 65.5957 -98.4023c0.12793 -0.606445 0.192383 -1.24902 0.192383 -1.8916
c0 -0.321289 -0.15625 -0.587891 -0.183594 -0.890625zM18.373 108.463v0l475.079 0.00976562v27.0225h-475.079v-27.0322zM256.386 271.946c0 -0.513672 -0.210938 -0.945312 -0.285156 -1.43164c0.00976562 -0.183594 0.00976562 -0.368164 0.0283203 -0.551758
c56.3125 -0.0458984 121.329 -0.982422 171.729 -17.8125v19.7959c0 59.1045 -59.958 65.4854 -85.7402 65.4854c-25.7832 0 -85.7314 -6.38086 -85.7314 -65.4854zM66.5498 264.354v-15.1689c46.25 19.7686 110.247 20.7422 171.104 20.7783
c-3.77344 53.7607 -60.4531 59.875 -85.373 59.875c-25.7734 0 -85.7314 -6.37207 -85.7314 -65.4844zM246.589 251.6c-129.382 0 -222.174 -7.18945 -227.932 -97.75h474.446c-2.95605 39.252 -25.2129 62.7119 -58.0107 76.7695
c-1.08398 0.248047 -2.04785 0.642578 -2.95703 1.2207c-48.8291 19.7324 -119.677 19.7598 -185.547 19.7598zM18.373 46.5498h24.3682l-0.00878906 43.5312h-24.3594v-43.5312zM469.093 46.5498h24.3779l-0.0185547 43.5312h-24.3594v-43.5312z" />
    <glyph glyph-name="uniF10D" unicode="&#xf10d;" 
d="M444.291 384.222l67.709 -67.7119l-316.733 -316.733l-195.267 195.263l67.709 67.7109l127.558 -127.554z" />
    <glyph glyph-name="uniF112" unicode="&#xf112;" 
d="M215.407 425.268c-0.738281 5.2207 2.89453 10.0527 8.11523 10.79c5.22949 0.744141 10.0527 -2.89453 10.791 -8.11621l15.1191 -106.892c0.738281 -5.2207 -2.89453 -10.0527 -8.11523 -10.79c-0.454102 -0.0644531 -0.905273 -0.0957031 -1.34961 -0.0957031
c-4.68066 0 -8.7666 3.44434 -9.44043 8.21289zM467.093 388.712l-7.47852 7.47852c-3.72949 3.72852 -3.72949 9.77344 0 13.502c3.73047 3.72949 9.77441 3.72949 13.5039 0l7.47656 -7.47656l7.47656 7.47656c3.73047 3.72949 9.77344 3.73047 13.5039 0
c3.72852 -3.72852 3.72852 -9.77344 0 -13.502l-7.47852 -7.47852l7.47559 -7.47461c3.72852 -3.72852 3.72852 -9.77344 0 -13.5029c-1.86523 -1.86328 -4.30859 -2.7959 -6.75195 -2.7959s-4.88574 0.931641 -6.75098 2.7959l-7.47363 7.47559l-7.47461 -7.47559
c-3.73047 -3.72754 -9.77344 -3.72852 -13.5039 0c-3.72852 3.72949 -3.72852 9.77441 0 13.5029zM190.05 264.689l-84.2861 110.013c-3.20605 4.18652 -2.41211 10.1797 1.77246 13.3857c4.18652 3.20605 10.1787 2.41309 13.3857 -1.77246l84.2861 -110.014
c3.20605 -4.18555 2.41211 -10.1787 -1.77246 -13.3857c-1.73242 -1.32715 -3.77441 -1.96875 -5.7998 -1.96875c-2.87012 0 -5.70605 1.28809 -7.58594 3.74219zM33.3398 353.864c-4.18164 3.21191 -4.96777 9.20703 -1.75293 13.3887
c3.21094 4.18066 9.20508 4.9668 13.3877 1.75293l3.16016 -2.42969c4.18066 -3.21191 4.96582 -9.20703 1.75391 -13.3877c-1.88086 -2.44727 -4.71484 -3.73145 -7.5791 -3.73145c-2.03027 0 -4.0752 0.645508 -5.80957 1.97754zM25.2734 235.529l97.6436 -12.9287
c5.22656 -0.692383 8.90234 -5.49121 8.21094 -10.7188c-0.635742 -4.80176 -4.7373 -8.29492 -9.45215 -8.29492c-0.416992 0 -0.84082 0.0273438 -1.26562 0.0839844l-97.6445 12.9287c-5.22656 0.692383 -8.90234 5.49121 -8.21094 10.7188
c0.691406 5.22656 5.49219 8.90723 10.7188 8.21094zM64.4629 329.942c-4.18164 3.21289 -4.96582 9.20703 -1.75195 13.3877s9.20801 4.96484 13.3887 1.75195l92.8096 -71.3242c4.18066 -3.21289 4.96484 -9.20801 1.75098 -13.3887
c-1.88086 -2.44629 -4.71289 -3.72949 -7.57715 -3.72949c-2.03223 0 -4.07715 0.644531 -5.81152 1.97754zM269.806 309.268c-5.22363 0.708008 -8.88574 5.51758 -8.17773 10.7441l14.624 107.817c0.709961 5.22559 5.50879 8.88672 10.7441 8.17773
c5.22559 -0.708008 8.88672 -5.51953 8.17773 -10.7441l-14.624 -107.817c-0.649414 -4.79102 -4.74512 -8.2666 -9.44824 -8.2666c-0.428711 0 -0.860352 0.0292969 -1.2959 0.0888672zM487.462 174.331c5.22754 -0.692383 8.90332 -5.49121 8.20996 -10.7188
c-0.635742 -4.80176 -4.73828 -8.29492 -9.45312 -8.29492c-0.417969 0 -0.839844 0.0273438 -1.26562 0.0839844l-130.95 17.3398c-5.22656 0.691406 -8.90234 5.49023 -8.21094 10.7178c0.692383 5.22852 5.49512 8.89844 10.7188 8.21191zM495.719 226.959
c0.685547 -5.22949 -2.99902 -10.0225 -8.22754 -10.7061l-98.249 -12.8613c-0.420898 -0.0546875 -0.837891 -0.0810547 -1.25195 -0.0810547c-4.72168 0 -8.8252 3.50098 -9.4541 8.30957c-0.683594 5.22754 2.99902 10.0215 8.22852 10.7061l98.248 12.8604
c5.22656 0.681641 10.0225 -2.99902 10.7061 -8.22754zM434.351 344.815c4.18652 3.20703 10.1797 2.41309 13.3857 -1.77246c3.20605 -4.18652 2.41309 -10.1797 -1.77246 -13.3867l-92.4346 -70.8184c-1.73242 -1.32812 -3.77441 -1.96973 -5.7998 -1.96973
c-2.87012 0 -5.70703 1.28809 -7.58594 3.74219c-3.20605 4.18555 -2.41309 10.1787 1.77246 13.3857zM408.814 395.585c-4.17969 3.21484 -4.96191 9.20898 -1.74609 13.3896l0.841797 1.09473c3.21387 4.17871 9.20703 4.96191 13.3896 1.74609
c4.17871 -3.21484 4.95996 -9.20898 1.74609 -13.3887l-0.842773 -1.09473c-1.88086 -2.44434 -4.71191 -3.72754 -7.5752 -3.72754c-2.03223 0 -4.07812 0.646484 -5.81348 1.98047zM425.809 417.713c-4.17871 3.21484 -4.95898 9.20996 -1.74219 13.3896l0.889648 1.15625
c3.21582 4.17773 9.20996 4.95898 13.3887 1.74219c4.17969 -3.2168 4.95996 -9.21094 1.74316 -13.3896l-0.889648 -1.15625c-1.88086 -2.44336 -4.71191 -3.72559 -7.57324 -3.72559c-2.0332 0 -4.08008 0.647461 -5.81641 1.9834zM307.381 263.477
c-4.18066 3.21191 -4.96484 9.20703 -1.75 13.3887l83.9609 109.252c3.21191 4.18066 9.20801 4.96484 13.3877 1.75293c4.17969 -3.21387 4.96484 -9.20801 1.75098 -13.3896l-83.9609 -109.252c-1.87988 -2.44531 -4.71289 -3.72949 -7.57715 -3.72949
c-2.03223 0 -4.07715 0.645508 -5.81152 1.97754zM18.7793 377.105c-1.87988 -2.44727 -4.71387 -3.73242 -7.5791 -3.73242c-2.0293 0 -4.07422 0.645508 -5.80859 1.97656l-1.65918 1.27539c-4.18164 3.21191 -4.9668 9.20605 -1.75586 13.3877
c3.21191 4.18066 9.20508 4.96777 13.3877 1.75586l1.65918 -1.27539c4.18066 -3.21191 4.9668 -9.20605 1.75586 -13.3877zM316.02 121.15c0.945312 -3.8252 -0.555664 -7.83887 -3.78027 -10.1025c-3.22363 -2.26562 -7.50488 -2.31738 -10.7852 -0.131836
l-44.7246 29.8242l-48.208 -29.9873c-1.54883 -0.962891 -3.29883 -1.44043 -5.04297 -1.44043c-2.02344 0 -4.04297 0.641602 -5.7334 1.91406c-3.15137 2.36523 -4.52441 6.42383 -3.45898 10.2168l14.5439 51.751l-43.416 36.582
c-3.01367 2.53809 -4.15723 6.66699 -2.88086 10.3936c1.27734 3.72852 4.71094 6.28809 8.64941 6.44727l53.7129 2.16113l21.375 52.5957c1.48438 3.64941 5.04199 5.99609 8.99609 5.95117c3.93945 -0.0625 7.43652 -2.53809 8.80273 -6.2334l18.6523 -50.416
l56.6279 -4.0752c3.92969 -0.283203 7.28125 -2.9502 8.44043 -6.71777c1.1582 -3.76562 -0.116211 -7.85645 -3.20801 -10.2988l-42.1865 -33.3184zM285.734 187.438l27.7041 21.8818l-38.2227 2.75195c-3.73535 0.267578 -6.96875 2.69629 -8.26855 6.20996
l-12.251 33.1104l-14.4277 -35.5029c-1.41016 -3.46973 -4.71875 -5.79395 -8.46289 -5.94434l-35.2754 -1.41992l29.3047 -24.6924c2.86426 -2.41309 4.05273 -6.2793 3.04004 -9.88477l-9.55273 -33.9893l32.542 20.2422
c3.17969 1.97852 7.22363 1.91504 10.3398 -0.163086l29.373 -19.5869l-9.19531 37.2031c-0.897461 3.63672 0.413086 7.46387 3.35254 9.78418zM443.7 -34.9971l1.37988 -1.80078c3.20801 -4.18457 2.41699 -10.1777 -1.76855 -13.3857
c-1.73145 -1.32812 -3.77539 -1.9707 -5.80176 -1.9707c-2.86816 0 -5.7041 1.28613 -7.58398 3.73926l-1.37988 1.7998c-3.20801 4.18555 -2.41699 10.1787 1.76855 13.3867c4.18359 3.20801 10.1768 2.41602 13.3857 -1.76855zM25.4209 262.846
c-3.72852 -3.72949 -9.77344 -3.72949 -13.5039 0c-3.72949 3.72852 -3.72949 9.77344 0 13.502l7.47559 7.47559l-7.47754 7.47754c-3.72852 3.72852 -3.72852 9.77344 0 13.502c3.73145 3.72949 9.77539 3.72949 13.5039 0l7.47559 -7.47559l7.47656 7.47559
c3.72949 3.72852 9.77344 3.72949 13.5029 0c3.72949 -3.72852 3.72949 -9.77344 0 -13.502l-7.47656 -7.47754l7.47559 -7.47559c3.72949 -3.72852 3.72949 -9.77344 0 -13.502c-1.86523 -1.86426 -4.30762 -2.79688 -6.75098 -2.79688s-4.88672 0.931641 -6.75098 2.79688
l-7.47559 7.47461zM425.334 -11.0107c3.20801 -4.18359 2.41602 -10.1777 -1.76855 -13.3857c-1.73242 -1.32812 -3.77539 -1.9707 -5.80176 -1.9707c-2.86914 0 -5.7041 1.28613 -7.58398 3.73926l-1.38086 1.7998c-3.20801 4.18555 -2.41602 10.1787 1.76855 13.3867
s10.1777 2.41504 13.3857 -1.76855zM501.728 99.4434l7.47461 -7.47363c3.72949 -3.72852 3.72949 -9.77344 0 -13.5029c-1.86426 -1.86328 -4.30762 -2.7959 -6.75098 -2.7959s-4.88574 0.931641 -6.75098 2.7959l-7.47461 7.47461l-7.47461 -7.47461
c-3.73047 -3.72852 -9.77441 -3.72949 -13.5039 0s-3.72949 9.77344 0 13.5029l7.47461 7.47461l-7.47656 7.47656c-3.72949 3.72949 -3.72949 9.77441 0 13.5029c3.72949 3.72754 9.77344 3.72852 13.5029 0l7.47754 -7.47656l7.47559 7.47559
c3.72949 3.72754 9.77344 3.72852 13.5039 0c3.72852 -3.72949 3.72852 -9.77344 0 -13.5029zM445.765 60.9883c4.18066 -3.21289 4.96484 -9.20703 1.75293 -13.3887c-1.88086 -2.44629 -4.71387 -3.73047 -7.57812 -3.73047
c-2.03125 0 -4.07715 0.645508 -5.81152 1.97852l-88.9717 68.3779c-4.18066 3.21387 -4.96484 9.20801 -1.75098 13.3887c3.21289 4.18066 9.20801 4.96484 13.3877 1.75293zM356.992 78.1885l47.4717 -61.9619c3.20605 -4.18555 2.41211 -10.1787 -1.77246 -13.3857
c-1.73242 -1.32715 -3.77539 -1.96875 -5.7998 -1.96875c-2.87012 0 -5.70703 1.28809 -7.58691 3.74121l-47.4707 61.9609c-3.20605 4.18555 -2.41211 10.1787 1.77246 13.3857c4.18652 3.20801 10.1777 2.41406 13.3857 -1.77148zM167.173 128.091
c3.20703 -4.18652 2.41406 -10.1787 -1.77246 -13.3867l-89.5254 -68.5898c-1.73242 -1.32715 -3.77441 -1.96875 -5.7998 -1.96875c-2.86914 0 -5.70605 1.28809 -7.58594 3.74121c-3.20605 4.18652 -2.41211 10.1787 1.77246 13.3857l89.5254 68.5898
c4.18652 3.20801 10.1797 2.41309 13.3857 -1.77148zM70.1211 1.61816c3.72949 -3.72949 3.72949 -9.77539 -0.00195312 -13.5029l-7.47559 -7.47559l7.47461 -7.47461c3.72852 -3.72949 3.72852 -9.77344 0 -13.5029c-1.86523 -1.86328 -4.30859 -2.7959 -6.75098 -2.7959
c-2.44336 0 -4.88672 0.932617 -6.75195 2.7959l-7.47461 7.47461l-7.47656 -7.47559c-3.72949 -3.72852 -9.77344 -3.72852 -13.5029 0c-3.72852 3.72852 -3.72852 9.77344 0.000976562 13.5029l7.47461 7.47461l-7.47559 7.47559
c-3.72852 3.72852 -3.72852 9.77344 0 13.5029c3.73047 3.72852 9.77344 3.72852 13.5039 0l7.47559 -7.47656l7.47852 7.47754c3.72852 3.72852 9.77344 3.72852 13.502 0zM163.53 183.478c0.68457 -5.22754 -2.99902 -10.0205 -8.22754 -10.7061l-130.089 -17.0273
c-0.419922 -0.0556641 -0.837891 -0.0820312 -1.25098 -0.0820312c-4.72266 0 -8.8252 3.50098 -9.45508 8.30957c-0.683594 5.22754 2.99902 10.0215 8.22852 10.7061l130.088 17.0283c5.20996 0.677734 10.0215 -2.99902 10.7061 -8.22852zM280.55 71.5137
l14.624 -107.818c0.708984 -5.22461 -2.95312 -10.0352 -8.17773 -10.7441c-0.43457 -0.0595703 -0.868164 -0.0878906 -1.2959 -0.0878906c-4.70312 0 -8.79883 3.47559 -9.44824 8.2666l-14.624 107.817c-0.708008 5.22461 2.95312 10.0352 8.17773 10.7441
c5.21191 0.706055 10.0352 -2.95215 10.7441 -8.17773zM241.317 78.6973c5.2207 -0.737305 8.85449 -5.56934 8.11426 -10.791l-15.1191 -106.891c-0.673828 -4.76562 -4.76074 -8.21094 -9.44043 -8.21094c-0.444336 0 -0.895508 0.03125 -1.34961 0.0957031
c-5.2207 0.738281 -8.85352 5.56934 -8.11523 10.791l15.1191 106.89c0.738281 5.2207 5.5791 8.85547 10.791 8.11621zM166.445 80.0889c4.18066 -3.21289 4.96484 -9.20703 1.75293 -13.3887l-47.5605 -61.8857c-1.87988 -2.44629 -4.71289 -3.73047 -7.57715 -3.73047
c-2.03223 0 -4.07715 0.645508 -5.81152 1.97754c-4.17969 3.21387 -4.96484 9.20801 -1.75195 13.3896l47.5605 61.8857c3.21094 4.18066 9.20801 4.96484 13.3877 1.75195z" />
    <glyph glyph-name="uniF105" unicode="&#xf105;" 
d="M255.995 448c141.165 0 256.005 -114.842 256.005 -256c0 -141.157 -114.84 -256 -256.005 -256c-141.155 0 -255.995 114.843 -255.995 256c0 141.158 114.84 256 255.995 256zM255.995 -30.4258c122.645 0 222.429 99.7812 222.428 222.426
c0 122.645 -99.7832 222.424 -222.428 222.424c-122.636 0 -222.421 -99.7783 -222.421 -222.424c0 -122.645 99.7852 -222.426 222.421 -222.426zM255.995 331.031c45.0303 0 81.6602 -36.6289 81.6602 -81.6543c0 -39.2715 -27.8721 -72.1445 -64.8701 -79.9062v-43.4404
c0 -9.27148 -7.52051 -16.7871 -16.79 -16.7871s-16.7852 7.51562 -16.7852 16.7871v58.4756c0 9.26855 7.51562 16.7861 16.7852 16.7861c26.5176 0 48.084 21.5703 48.084 48.084c0 26.5088 -21.5635 48.0791 -48.084 48.0791
c-26.5107 0 -48.0762 -21.5703 -48.0762 -48.0791c0 -9.26953 -7.51465 -16.7871 -16.7891 -16.7871c-9.27051 0 -16.7852 7.51562 -16.7852 16.7871c0 45.0264 36.625 81.6553 81.6504 81.6553zM256.005 97.6152c11.6406 0 21.0654 -9.43457 21.0654 -21.0713
s-9.4248 -21.0752 -21.0654 -21.0752c-11.6299 0 -21.0752 9.43848 -21.0752 21.0752s9.44531 21.0713 21.0752 21.0713z" />
  </font>
</defs>
</svg>
